&title=My Time(修改版.?)
&artist=OMOCAT, LLC.
&first=-0.71
&des=STEXxx
&lv_5=14
&inote_5=(67.45){4},{12}4/5,3,3,4/5,6,6,4/3,5/2,5/2,
6,7/5,7/5,4,5/3,5/3,6,7/5,5/7,4,5/3,5/3,
6,5/7,5/8,4,5/3,5/2,6,5/7,5/8,4,6/3,5/3,
6,{24}4,7,4,8,{12}3,2/4,5/3,6,7/5,6/4,3,2/4,5/3,
6,7/5,6/4,3,2/4,5/3,5,7/5,6/4,3,2/4,5/3,
5,{24}3,5,3,6,{12}2,2/6,2/7,8,4/8,8/3,2,2/6,2/7,
8,8/3,8/2,1,6/2,6/3,4,7/4,6/4,5,5/2,5/3,
4,{24}6,4,7,3,{12}8,8/2,8/3,2,1/7,1/6,7,7/2,8/1,
{48}1x,8x,1x,8x,1x,8x,1x,8x,1x,8x,1x,8x,{4}1bxh[24:11],7xh[24:11],3xh[24:11],
1xh[24:11],5xh[24:11],3xh[24:11],7xh[24:11],
2xh[24:11],8xh[24:11],1xh[24:11],6xh[24:11],
4xh[24:11],8xh[24:11],3xh[24:5],3q5[16:3]/8q6[16:3],
{24},,,,,,4x,5x,4x,5x<8[8:1],{12}3xh[6:1],6x,{24}5x,1x,2x,3x,{12}4x,6x/2x,7x,
{8}8x/4xV68[8:1],6x/2x,{12}4x/8x,1x,2x,{8}8x/4x,1x/5x,{48}6x/2x,1,8,7,6,5,4,3,2,1,8,7,
{4}6/2>5[8:1],{12}2/6,8,8,3/7<4[8:1],4,4,7/3,1,1,
{8}1-5[12:1],7-3[12:1],{12}1>7[16:3],7,2,{2}8q5[16:3]*q3[16:3],
{12}7/1,{24}4b,6/2,{48},,,,4/7,3,2,1,8,7,6x-1[12:1],5x,{12}4x,6/1-5[12:1],{24}2,2,{48},,,,5,4,3,2,1,8,7x-4[12:1],6x,{12}5x,
8/4-8[12:1],{24}2,2,{48},,,,1,2,3,4,5,6,7x-3[12:1],8x,{12}1x,6/2<6[12:1],{24}4,4,{48},,,,5,4,3,2,1,8,7x-4[12:1],6x,{12}5x,
6/4-8[12:1],{24}2,2,{48},,,,8,1,2,3,4,5,6x-2[12:1],7x,{12}8x,7/1-6[12:1],{24}4,4,{48},,,,5,4,3,2,1,8,7x-3[12:1],6x,{12}5x,
7/2<7[12:1],{24}3,3,{48},,,,5,4,3,2,1,8x,7x,6x,{12}5x,2b/7h[16:1],{48}4,5,{8}4h[12:1],{12}2b/7h[16:1],{48}4,5,{8}3h[12:1],
{24}2b/7b,7h[48:1],{48}4b,6,{8}1h[12:1],{24}3b/7b,4b/7bh[48:1],{48}3b,5b,{8}1bh[8:1],{12}5-8[12:1]*-1[12:1],6,4,5,,2/7,
E3/B3,B5/E6,E7/B7,1>4[12:1],E7/B7,B5/E6,1,6,7,6/8,7/5,6/4,
5-1[12:1],5/3,6/4,5/7<4[12:1],8,1,7/3p1[6:1],{48}3x,2x,1x,8x,7x,6x,5x,4x,{4}3x<6[12:1],
{12}3,2,2,5/3,{24}4,6,4,6,{12}3>8[12:1],5,6,7<4[12:1],6,5,
2/7,8,1,7/2-5[16:1],1,8,2/7,{48}7,6,7,6,{12}7,5/3,{48}2,3,2,3,{12}2,
7/1V35[12:1],{48}7,6,7,6,{12}7,1v6[12:1],7,8,1V35[12:1],3,2,1qq6[4:1],7,8,
{4}1/4h[6:1],{12}3-5[16:1],2,1,3/8,7/6,8/5,4/1,3/2,4/3,
5/6,8/7,2/1,8-5[12:1]/7-4[12:1],6/5,4/3,{4}8-3[12:1]/7-2[12:1],8p3[12:1]/7<4[12:1],
7/8>4[12:1],8/7-3[16:1],7/1bxh[24:11],7xh[24:11],
3xh[24:11],1xh[24:11],5xh[24:5],2xh[24:5]/6xh[24:5],
7xh[24:5]/3xh[24:11],6xh[24:11],1xh[24:11],4xh[24:11],
7xh[24:11],2xh[24:11],8xh[24:11],3xh[24:5],
{2}3q5[16:3]/8q6[16:3],{24}4x,5x,4x,5x<8[8:1],{12}3xh[6:1],6x,{24}5x,1x,2x,3x,
{12}4x,6x/2x,7x,4x/8xV24[8:1],{24}7,6x/2x,,,{12}8x/4x,5x,6x,4x/8x,{24}6,1x/5x,{48},,,,6x/2x,
1,8,7,6,5,4,3,2,1,8,7,{4}6/2>5[8:1],{12}2/6,8,7,3/7<4[8:1],4,3,
7/2,1,2,3-7[12:1],{24},{8}7-3[12:1],{12}4<2[16:3],5,6,8q5[16:3]*q3[16:3],{4},{16},,{24},{48}4xh[8:1],
,,,,Cf,,,,,,,{16}5b/4b,{32}4,5,3,6,4,7,{16}2h[16:1],{32}1,2,8,3,7,2,
{16}6h[16:1],{32}8,7,1,6,2,7,{16}1h[16:1],{32}8,1,7,2,6,1,{48}5b,2,4,2,4,2,{16}4,{32}5,3,{16}6h[16:1],{32}5,6,4,7,5,8,
{48}1b,8,1,8,1,8,{16}2x>6[16:1],{32}3,6,4,7x,8x,1x,2x,8x,1x,2x,{48}3bx,7,3x,7,3x,7,{16}3x<7[16:1],{32}2,7,3,8x,1x,2x,3x,1x,2x,3x,
{48}4bx,7,4x,7,4x,7,{16}4x<8[16:1],{32}3,7,4,8x,1x,2x,3x,2x,3x,4x,{48}5bx,1,5x,1,5x,1,{16}5x>3-1[16:1],{32}4,6,1,8x,7x,6x,5x,6x,5x,4x,
{48}3bx,1x,3x,1x,3x,1x,{32}3x,1x,2x/8x,7x/3x,{12}6/4v1b[16:1],5/3,8/3,{16}6/Cf/4-7[16:1],{32}6,7,8,4,3,2,{16}1b-4[16:1],{32}2,3,7,6,2,7,
{16}1b-6[16:1],{32}8,7,3,4,6,3,{16}1b,{32}2,3,7,6,1,5,{48}2b-6-1[8:1],6,2,6,2,6x,{32}3x-5b[16:1],4x,8,1,{16}2,4,3,8,
{48}4b-8-5[8:1],7,4,7,4,7x,{32}3x-1b[16:1],2x,6,5,{16}4,2,3,6,8-3[16:1],{32}7,3,6,2,5,1,{16}8x/5-8[16:1],{32}4-1b[16:1],7,3,6,3,5,
{16}3,4b,,5,1-4[16:1],8/4-8b[16:1],2,{32}6,1,{8}5>2[16:1],{16}6,5,7-5[16:1],6,8/2,{32}1,8,
7x,3,2,1/6,7,8,2,3,{48}8/4,7x-3b[24:1],6,5,4,3,2,1,8x/4x,{192}7x/3x,,,6x/2x,,,{64}5x/1x,4x/8x,{2}Cf/7bxp3p5[2:7]/3bxp7p1[2:7],
E
