&title=SNOW PRINT
&artist=N-tone
&first=0.02
&des=Ylng
&lv_5=13
&inote_5=(115){1},
{32}2>5[2:1],4>5[32:110],,,,,,,
{4},,,,,,,
{4}5>1[4:6],,,,,,,,
{32}7<4[2:1],5<4[32:110],,,,,,,
{4},,,,,,,
{4}4<8[4:6],,,,,,,,
{32}2>6[2:1],4>7[32:39],,,,,,,
{4},,,8<4[4:4],,2<8[8:1],,3>5[4:4],,,,
{4},,3<5[12:1],,
{32}7<3[2:1],5<2[32:39],,,,,,,
{4},,,1>5[4:4],,7>1[8:1],,6<4[4:4],,,,
{4}5<3[8:5],,,,
{32}7<5[12:1],4>7[32:39],,,,,,,
{4},7<5[12:1],,8<4[4:4],,2<8[12:1],,3>5[4:4],,4>2[12:1],,3>1[12:1],,
{32}4<7[12:1],,4>1[12:1],,,,,,,,,,,,,,
{32}2>4[12:1],5<2[32:39],,,,,,,
{4},2>4[12:1],,1>5[4:4],,7>1[12:1],,6<4[4:4],,5<7[12:1],,6<8[12:1],,
{32}5>2[12:1],,5<8[12:1],,,,,,,,,,,,,,
{32}7<5[12:1],4>6[32:47],,,,,,,,,,,,,,,6>4[12:1],,,,,,,,,,,,,,,,
{16}8<2[4:6]*>2[12:1],,,,,,,,5>3[12:1],,,,,,,,1<7[12:1],,,,,,,,8<6[12:1],,,,,,,,
{16}7>2[8:1]/1<7[12:1],,,,
{384}1<3[8:3],,,,,,,,,,,,,,,,,,,,,,,,,,,,,,,,,,,,,,,,,,,,,,,,,,,,,,,,,,,,,,,,,,,,,,,,,,,,,,,,,,,,,,,,,,,,,,,,
{16}1>3[12:1],,,,,,,,
{32}2>4[12:1],5<3[32:47],,,,,,,,,,,,,,,3<5[12:1],,,,,,,,,,,,,,,,
{16}1>7[4:6]*<7[12:1],,,,,,,,4<6[12:1],,,,,,,,8>2[12:1],,,,,,,,1>3[12:1],,,,,,,,
{16}2<7[8:1]/8>2[12:1],,,,
{384}8>6[8:3],,,,,,,,,,,,,,,,,,,,,,,,,,,,,,,,,,,,,,,,,,,,,,,,,,,,,,,,,,,,,,,,,,,,,,,,,,,,,,,,,,,,,,,,,,,,,,,
{16}8<6[12:1],,,,,,,,
{8}4>2[12:1],4<6[12:1],,,5>3[12:1],,5<2[32:32],,1>4[8:1],,,,5<8[8:1],,,,
{8}4>2[12:1],5>6[8:8],,,7<5[12:1],,,,5>3[12:1],,,,2>5[12:1],2<7[12:1],,,
{8}5<7[12:1],5>3[12:1],,,4<6[12:1],,4>7[32:32],,8<5[8:1],,,,4>1[8:1],,,,
{8}5<7[12:1],4<3[8:8],,,2>4[12:1],,,,4<6[12:1],,,,7<4[12:1],7>2[12:1],,,
{4}3<6[4:8],,,,,,,,8<4[4:8],,,,,,,,2>1[4:12],,,,,,,,1>5[4:5],,,,,,,,
{32},5b>4[4:11],,,,,,,,
