&title=Small Cloud Sugar Candy
&artist=テヅカ x Aoi feat.桃雛なの
&first=0.033
&des=L
&des_5=
&lv_5=14
&inote_5=(220){4},,,,2,
2,{8}B2/B6,,,5/3<5[2:1],
,,{4}5,{2}6,
{4}7,7,{8}B7/B3,,,4/6>4[2:1],
,,{4}3,{2}2,
{4}2/7,7/2,{8}E7/E3,,,3<5[2:1],
,,{4}E6,{2}E7,
{8}8bh[4:1],1,2h[4:1],7,6h[4:1],8,{4}1h[4:1],
{8}5,5,3,3,5,6/4,{16}7x,5,7,5,
{4}7b-1[8:1],2,{8}2,3x,2,4xh[8:3],
{4}2,{8}2,4,2x,5x,2x,6x,
{4}7/5xh[4:1],7,7/6xh[4:1],7,
7/8xh[4:1],{8}7,1x,6/2,5,2,4,
2,3-1[8:1],4,3/5,6,7-5[8:1],8,7/1,
3,3,8,8,4,4,{16}6,5,{8}6,
7/1,6/2,3,4,3,2/6,7,1/8,
2,{16}A6,E6,E5,A4,D7,B6,B4,D4,A7,B7,B3,A3,,,{4}2b-8[8:1],
7,{8}7,6x,7,5xh[2:1],
{4}7,7,{8}4,3,2,4x,
{4}2/4xh[4:1],2,2/3xh[4:1],2,
2/1xh[4:1],{8}2,8x,3/7xh[4:1],4,{4}5h[4:1],
{8}7-4[8:1],2,7,1,,3-8[8:1],6,3,
5,{16}5x,6x,{8}7x-4[8:1],7,1-5[8:1],1,5,7h[8:3],
,,{4}3h[8:1],{8}6/1,1/6,2,3/7pp4[2:1],
,3,{4}3h[2:1],,,{1}C/2-7[2:3],
{8},,,,,,,6,
6h[8:3],,,1,,2,{4}2h[8:1],
{8},8,,6/C,,,,,{1}6pp5[2:1],
{2}4h[4:1]/3pp2[2:1],1h[8:1],
{1}8h[2:1]/7p4[2:1],
2q7[2:1],
{2}6h[4:1]/4-1[4:1],8-5[4:1],
3-6[4:1],7h[2:1],
{8},4,4,6,7-5[8:1],4,4,3,
{4}2-5[8:1],6-1[8:1],{2}3h[2:1],
{4}1s5[4:3],1,1,{16}1,,,2,
,,{8}3,3,3,{4}B6,8,
5z1[4:3],6h[8:1],6h[8:1],{8}6,7,
,7-4[8:1],,7/8,2-5[8:1],5x,{4}2,
4<7[4:1],2,{8},2q5[8:3],,C,
,7x,,7,,2/5,{4}6p4[2:1]/3q5[2:1],
{8},,,,A5/D5/A4,,,6b/3b,
,8b/1b,,5b/4b,,7bh[4:1]/3bh[4:1],,,2,
3,2/4-6[8:1],3,2/4,3,2,3,
{4}2/6-8[8:1],{8}2/6,3,{4}2-5[8:1]/1-5[8:1],1/2,
{8}7x-5[8:1],8,7x-4[8:1],1,7x,8,1,2b-5b[8:1]/6b-1b[8:1],
,6b/2b,,8bx<5b[8:1]/4bx>1b[8:1],,4b/8b,,,{4}8-4[8:1],
8,{8}6,5/7-2[8:1],,3-6[8:1],
,3/8,,1/7,{4}2-6[8:1]*-5[8:1],2,
{8}8h[2:1],,,B8,{4}B4,3x,
3x/C,6x/B3,{2}D1/B8/B1,
{8}7-5[8:1],7,8-4[8:1],8,1,1,{16}1,3,{8}1,
2>4[8:1],2,1q5[16:3],1,8,8,{4}8h[4:1],
4<7[8:1],4,{8}8,1-6[8:1]*-4[8:1],,1,
,8/2,{4}3-8b[8:1],3b/7b-4b[8:1],7b/2b,
{2}8bh[4:7],{8}D7,B6,,B7,
,C,,B3,,B2,{4}D3,
2bx-5[8:1],2b/8b-3[8:1],8b/4b,4b/6b,
{8}5/1,4/8,5/1,4/8,,5,{4}4/6,
{8}7-4[8:1]/3-8[8:1],7/3,{4}7/3,{16}1x,2,3,4,5/8,7,6b,5,
{8}4,2b-7[8:1],2b,5,,5bx-1[8:1]/6bx-1[8:1],{4}5bx/6bx,
{8},2,{4}3/8,{8}8-4[8:1],4-7[8:1],,3h[8:1],
,3,{4}6b-3[8:1]/2b-7[8:1],6b/2b,1b/5b,
6x-8[8:1],{8}1,3,{4}6x-1[8:1],{8}2,4,
{4}6x-2[8:1],3-7[8:1],{8}3,5,5,5,
{16}3,4,{8}3,{16}6,5,{8}6,{16}3,4,{8}3,{16}7,8,{8}7,
6/5,4/3,1/2,7/8,,6,{4}6h[4:1],
{16}1,2,3,4,5/8,7,6,5,{8}4/1b,1b-5[8:1],,5x>8[4:1],
,,6,6V47[4:1],{16},,7x,8x,1x,2x,{8}3x,
{4}3x-1[8:1],3/8-4[8:1],8,{16}3,5,3,5,
{4}2h[4:1],{16}7,5,7,5,{8}8h[4:1],3,3,3,
{4}2-4[8:1],{8}2,7,{4}6/2-5[8:1],{8}2,8,
{4}7/2-6[8:1],{8}2,1,8/5,4,3,2,
{16}7x,6,5,4,1x,8,7,6,3x,2,1,8,2,6,2,6,
{4}2b-8[8:1],2b/7b-3[8:1],{2}7b/4b,
{1}C,
{2},6h[2:1],
{16}1b,8,1,8,2,7,2,7,3,6,3,6,4,5,4,5,
{4}4b-8[8:1],4b/6b-2[8:1],{2}6b/3b<1[2:1],
{8}2h[1:1],,,E2,,,{4}E5,
{8}7h[1:1],,,E8,,,{4}D5,
{8}2,,,3,,,{4}3,
{8}7<3[2:1],,,8,,,{4}1,
{8}8>5[2:1],,,7,,,{4}6,
{8}1<4[2:1],,,3,,,{4}2,
8,{8}8,2,{4}6,6,
{8}4h[4:1]/5h[4:1],,,5/4,,,,,{4}3h[4:1],
{8}4,5/2-8[8:1],,5/2,{4}6,
6h[4:1],{8}5,7-1[8:1]/4-1[8:1],,7/4,,,{4}8x>3[8:1],
8x<5[8:1],{8}8x,2h[8:1],,4/3,
{16}2,4,2,4,{4}2-4[8:1],{16}5/2,6,7,8,{4}1-4[8:1]*-6[8:1],
1,{8}3x-8[8:1],3,4-7[8:1],4,2-6[8:1],2,
8,8,7-4[8:1],7,8-3[8:1],8,6,6,
{16}5,2,5,2,5,2,5,2,6,3,6,3,6,3,6,3,
{32}A6,E6,B5,B4,E4,A3,{4},{16},{12}1x,1,1,8x,8,8,
{1}7b/2b,
{4}E8,E2,{2}E1/E5,
{4}E7,E6,{8},C,,E3,
,E4,{4}C,{8}E7,E5,,E1,
{4}C,D7,{8}D3,D5,,E1,
,B7,{4}B1,{8}B3,B5,{4}B8,
{2}Ch[4:7],8h[4:1],
1h[4:1],{8}2,1,8,7,
3/5,3,6/4,6,{16}2,3,4,5,7,6,5,4,
{32}1x,2,3,4,5,6,7,8,1,2,3,4,5,6,7,8,{8}1,5h[4:1],,,3-8[8:1],
8V25[4:1],{4}3,{8}6-1[8:1],7,6,2-5[8:1],
,2,7,4,{16}8-4[8:1],7,6,5,{4}4/8bx,
6-3[8:1],6/2,{8}2,1-4[8:1]*-6[8:1],8,1,
,7h[12:1]/3h[12:1],{24},,{6}6h[12:1]/2h[12:1],1h[12:1]/5h[12:1],7h[12:1]/3h[12:1],6h[12:1]/2h[12:1],
{4}5/1-5[8:1],{8}5,6,{4}7/8-4[8:1],{8}4,5,
6/7-3[8:1],7,6-1[8:1],6,5-2[8:1],5,8,8,
{16}3x,7,3,7,2,6,2,6,1,5,1,5,8,4,8,4,
{4}8>3[4:1],3<6[4:1],{2}6-2[4:1],
{1}8z4[1:1],
{16},,,,,,,,3,7,3,7,2,6,2,6,
{1}1pp5[8:3]*qq5[8:3],
7qq4[8:3]/2qq7[8:3],
{16}3,5,3,5,2,6,2,6,{32}1bx,8,7bx,6,5bx,4,3bx,2,1bx,8,7bx,6,5bx,4,3bx,2,
{4}1b-5[8:1],1bw5[8:1],
E
