&title=薄氷-usurai-
&artist=ぺのれり
&first=0
&des=Yuzukeai
&lv_5=14
&inote_5=(180)
{1},,
{64}4bs8[1:3]/5,4!z8[1:3],,,,,,,,,,,,,,,
{4},,,,,,,,,,,,,,,
{64}1h[1:1],,,,,,,,,,,,,,,,
{4},,,7h[1:1],,,,5h[1:1],,,,4<8[4:1],,
{16}A1,A2,A3,A4,{16}A5,A6,A7,A8,1x-4[8:1],,,,8,,8,,,,,,1-4[8:1]/4-1[8:1],,,,,,,,,,,,{16}5,6,7,8,{16}1,2,3,4,5-8[8:1],,,,4,,4,,,,,,5-8[8:1]/8-5[8:1],,,,,,,,,,,,1,2,3,4,7,8,1,2,5^2[8:1],,,,,,,,5x-8[8:1],,1x-4[8:1],,,,,,,,7,,,,35,,,2,3,4,5x,6,7,8,15,,3,4,3,,6,,5,,4,,73,,6,5,6,,3,,4,,5/1-5[16:10],,2,,3,,7,,8,,1b-3-8-4-7-5b[1:3],,,,,,,,,,,,,,,,,,,,,,,,,,,,,,,,,,,,,,,,,,,,,,,,,,,,,,,,,,,,,,,,
37,,,,A6,E6,E5,,3,,,,2,,2x/4h[8:3],,,,,,A1,E2,E3,,5,,,,7s3[8:5],,7z3[2:1],,,,,,,,,,,,,,,,1qq5[8:5],,,,5x,4x,3x,2x,1x^4[8:1],,,,C,,,,,,
7h[4:1]/8xb,,,,6,,,,1-3[8:1],,1,,5,,5,,4h[4:1]/6,,,,8,,,,5-3[8:1],,5,,1,,1h[4:1],,,,
{16}2x,3x,4x,5x^8[16:3],,,8^3[16:3],,,3^6[16:3],,,7,,,1,,,3x-8[8:1],,7x-4[8:1],,,,7,,,,,,
2h[4:1]/8,,,,4-7[8:1],,,,3-8[8:1],,3,,5,,5,,1,,2,,3,5,3,,7,,6,5,6,,1,,8,,8,,6,,6,,4,,4,,2^8[8:1],,2,,
{32}A7,D7,A6,,,,,,,,,,,,,,
{48}1b/5b,2b/6b,3b/7b,,,,,,,,,,
{16}5x>6[2:3],,,,
{32},,,,,,,,,,,,,,,,,,,,,,,,,,,,
{16}E5/B4/B5,,,,,,,,,,,,,,
{16}4x<3[2:3],,,,
{32},,,,,,,,,,,,,,,,,,,,,,,,,,,,
{16}E5/B4/B5,,,,,,,,,,,,,,5x>6[2:3]/4x<3[2:3],,,,,,,,,,,,,,,,,,,,,,,,,,,,,,,,
18,,,,6x,,3,4,3,,2x,,6,5,6,,7x,,3,5,3,,1x,,6,4,6,,8x-4[8:1],,3x,2x,8<2[4:1],,,,8b/6,,,,,,8,,17,,6-2[8:1],,6,,3,,,,4h[16:3],,,1,,,28,,7x,6x,5x-1[8:1],,,,2-6[8:1],,,,2,,8^3[8:1],,,,8,,5h[4:1],,,,,,1,8,7,6,5,4,E2,B1,B8,E8,E4,B4,B5,E6,1bx,,,,2,4,2,4,3x,,,,7,5,7,5,6h[8:1],,,6,2,,2,,34,,7,7,5,,6,6,2b,,,,7,6,1b/5,,,,2,3,8b/4z8[60#24:2]`4?s8[60#24:2],,,,
{64}4h[32:15],,,,,,,,,,,,,,,,
{16},,,,Cf,,,,,,,,
1,2,3,5,6,7,4,3,2,7,6,5,8,1,2,5,6,7,3,2,1,6,5,4,
7b,8,1-5[8:1],2/6b,,,18,,7,,7,,
3,2,1,8,5,,5,,1,2,3,4,7h[8:1]/5,,,1/7h[8:1],,,4/6h[8:1],,,8/6h[8:1],,,2-8[8:1]/6,3,4,,2b/7,,,,6-8[8:1],5,4,,6b/1,,,,2,3,4,5,1,8,7,6,2,3,4,5,8b,7,6-2[8:1],5/1b,,,26,,
E4/B4f/E5,,,,8,7,61,,1,,5,6,7/4,,4-2[8:1],,,,8-6[8:1],,,,5-1[8:1],,,,8-4[8:1],,7,,,,3,,3,,8,7,6,5,4-7[8:1]/1,,1,,24,,2,,3-8[8:1],,3,,37,,7,,6-2[8:1],,6,,1w5[8:1]/6,,,,1,,,,3,2,7,6,2,1,6,5,2,1,8/5h[4:1],,,,7,6,8,7,1,8,2b-6[8:1],,,5,{24}2,,,4h[8:1],,,{32}8bw4[2:1],15,26,37,,,,,{16},,,,,,,,,,,,,,2h[8:1]/4,,,2h[8:1]/8,,,3-1b[8:1],,,7,,,5,,
5-7[8:1]/8,,,1,5,,2-8[8:1],,,6,2,,4-6[8:1],,,1,4,,3-7[8:1],,,5,3,,4,,1,2,36,7,8,1,2/4b,,,,,,8-6[12:1],,,3,,,2-4[12:1],,,6,,,7-5[12:1],,,4,,,3-5[12:1],,,5,,,6,,6h[4:3],,,,,,5,,,,,,4<1[4:3],,,,,,,,,,,,,,,,,,,,
2h[4:3],,,,,,6,,,,,,7>5[4:3],,,,,,,,,,,,,,,,,,,,6h[4:3],,,,,,5,,,,,,3pp8[4:3],,,,,,,,,,,,7,,,,7,,,,7pp4[4:3],,,,,,,,,,,,,,1-3-7-5[4:3],,,,,,,,,,,,,,,,,,7b,,4x,3,2,5,4,3,1,2,3,7,8,1,4,3,2,5,4,3,1,2,3,7,8,1,4,3,2,6,5,4,3/1b,,
5x,6,7,4,5,6,8,7,6,2,1,8,5,6,7,3,4,5,8,7,6,5,8-4[8:1]/4-8[8:1],1,2,3,48,,,,6b,,1,2,3,4,5/7hb[4:1],,8,1,2,3,4/6hb[4:1],,7,8,1,2,3/5hb[4:1],,6,7,8,1,2/4hb[4:1],,5,6,7,8,{64}1/3bs7[8:11],3!z7[8:11],,,,,,,,,,,,,,,,,,,,,,,
{16},,,,,,,,,,,,,,,,,,,,,,,,,,,
{32}1x,2x,3xh[4:7],,,,,,,,,,,,,,,,,,,,,,,,,,,,,,,,7h[4:3],,,,,,,,,,,,,,,,,,,,,,,,,,,,,,,,
{64}1h[1:1],,,,,,,,,,,,,,,,
{4},,7,7h[1:1],,,5,5h[1:1],,,3,3-5-1[2:1],,
{16},,,,,,,,
{4}2/8h[32:1],,,46,5h[32:1],,
{16}3x,2x,1x,,5,,,,
{32}3z7[1:1]`7s3[1:1],,,,,,,,,,,,,,,,,,,,,,,,,,,,,,,,
{4},,
{16}A4,E4,E3,A2,{16}A5,E6,E7,A7,1-4[8:1],,,,8,,8,,,,,,1-4[8:1]/4-1[8:1],,,,,,,,,,,,{16}8,7,6,5,4,,,,8-5[8:1],,,,1,,1,,,,,,8-5[8:1]/5-8[8:1],,,,,,,,,,,,1,2,3,4,6,7,8,1,2^7[8:1]/3,,,,,,,,4x-1[8:1],,5x-8[8:1],,,,,,,,2,,,,81,,,7,6,5,4x,3,2,1,8-6[8:1]/4,,,,,,2-8[8:1],,,,,,4-2[8:1],,,,,,6-4-2-8-6z2[8:21]
,,,
&inote_6=
