&title=怪獣になりたい [STD]
&artist=Sakuzyo
&first=0.11
&lv_5=15.0
&des_5=nomiko
&inote_5=
(220){4},,,,5h[1:3]/4h[2:1],
{2},{4}3,
4h[2:1],{2},{4}2,
{1}3h[4:3],
{4}4,3,2,1>3[4:1]/7<4[4:1],
{1},{4}5,
6,7,8<6[4:1]/2>5[4:1],
{1},{8}4,
7,3,8,2,1w5[8:1],,1b,
{4},,{16},,{24}3,2,1,{16}4/8w4[8:1],5,6,7,
{8}8b,{4},,{24}6,7,8,{16}5/1-5[8:1],4,3,2,
{4}1b,{16}4h,8,4,8h,4h,8,4,8h,4h,8,4,8h,
4h,8,4,8h,{32}4b,3,2,1,8,7,6,5,{2}4,
{32}4V62[4:1],3,2,1,{24}5b,6,7,{8}4b,8,{16}8h,7,6,5,{8}3,3,
{32}5V37[4:1],6,7,8,{24}4b,3,2,{8}5b,1,{16}1h,2,3,4,{4},{16}5,
5,4,6,3,7,2,8,1b-5[8:1]*-6[8:1],1h,1b,1h,{4}1b,
{16}4,4,5,3,6,2,7,1,8b-4[8:1]*-3[8:1],8h,8b,8h,{4}8b,
{32}5V37[4:1],6,7,8,{24}4b,3,2,{8}5b,1,{16}1h,2,3,4,{8}6,6,
{32}4V62[4:1],3,2,1,{24}5b,6,7,{8}4b,8,{16}8h,7,6,5,{4},{16}4,
4,5,3,6,2,7,1,8b-4[8:1]*-3[8:1],8h,8b,8h,{4}8b,
{16}5,5,4,6,3,7,2,8,1b-5[8:1]*-6[8:1],1h,1b,1h,{4}1b,
{1}4>5[4:5],
{8}1,1,2,2,3,3,{4}4,
{1}5<4[4:5],
{8}8,8,7,6,{4}5h[4:1],{24}3-5[8:1],6,7,8,{16},{48},{4}8b,
{8}1/6-4[8:1],6,{4}6h/1<6[8:1],1/3h[4:1],
,{8}8/3-5[8:1],3,{4}3h/8>3[8:1],8/6h[4:1],
,{8}1/6-4[8:1],6,{4}6b/1v6[8:1],1/3h[4:1],
,{8}8/3-5[8:1],3,{4}3b/8v3[8:1],8/6h[4:1],
,{8}6-4[8:1],6,{4}6h/1<6[8:1],1/3h[4:1],
,{8}8/3-5[8:1],3,{4}3h/8>3[8:1],8/6h[4:1],
,{8}1/6-4[8:1],6,{4}6b/1v6[8:1],1/3h[4:1],
,{8}8/3-5[8:1],3,{4}3b/8v3[8:1],8/6h[4:1],
,{16}6-4[8:1],8,6,1,{4}6h,{24}2/3h[4:1],1,8,7,{4},{16},{48},{16}3-5[8:1],
1,3,8,{4}3h,{24}7/6h[4:1],8,1,2,{4},{16},{48},{16}6-4[8:1],
8,6,1,{4}6b,{32}2/3h[4:1],1,8,7,{8}6,
{4},{16}3-5[8:1],1,3,8,{4}3b,{32}7/6h[4:1],8,1,2,{8}3,
{4},{16}6-4[8:1],8,6,1,{4}6b,{32}2/3h[4:1],1,8,7,{8}6,
{16},2,1,8,2b,1,8,7,1b,8,7,6,{4}8b,
{8}5/1,{4},,,{8}4b/8b,
{2}2b/6b,{8}4/2h[2:1],5,6,7,
{1}8b,
{4},,{8}3h[8:1],4h[8:1],5h[8:1],6h[8:1],
7h[8:1],6h[8:1],5h[8:1],4h[8:1],{2}3b,
{4},,{8},3h[4:1],4h,5h[8:1],
{2}2b,{8}5h[2:1],7,1,3,
1h[2:1],7,5,3,{4}5,{8}6b/2b,3b/7b,
{1}8b/4b,
{4},,,{8}5/3,6,
{2}7/2,{8}4,3,2/7,6,
5/3,2,1/7,6,{4}5,{8}6h[8:1],{24}1b,2,3,
{2}4/7,{24}6/5,4,3,2/1,8,7,{8}6/5-1[8:1],1-5[8:1],
{4}5h,{24}4b,3b,2b,1b,8b,7b,{12}5h[24:1],6h[24:1],5h[24:1],6h[24:1],5h[24:1],6h[24:1],
5h[24:1],6h[24:1],{48}5h[24:1],{24},{48}6h[24:1],{24},5h[24:1],{48},6h[24:1],{24},{48}5h[24:1],{24},{48}6h[24:1],{24},5h[24:1],{48},6h[24:1],{24},5h,6b-3[6:1],5b-2[8:1],6b,5b,6b,5b,6b,
{1}5b,
4h[4:3]/3h[4:3],
{16}8b,6,2,4,3,5,1,7,8,5,1,6,3,8,4,1,
{4}6h[2:1],2,,{16}6,5,4,3,
{24}4h,3,2,4h,3,2,4h,3,2,4h,3,2,4h,3,2,4h,3,2,4h,3,2,4h,3,2,
{4}4b,{2},{4}2-6[4:1],
{8}2b/6V48[8:3],{4},{16}7b,8h,{4}1-3[8:1],1/7v4[4:1],
{8}7b/4V61[4:1],{4},{16}2b,1h,{4}8-6[8:1],8,
{24}3/5h[4:1],4,6,7,{16},,,{48},{24}6/4h[4:1],5,3,{4}2,8b/4b,
{24}2/8h[4:1],1,7,6,{16},,,{48},{24}7/1h[4:1],8,2,{4}3,5b,
{16}8,1,{8}2-6[8:1],{16},,{24}2/5,6,7,{4}8,{24}5b/7b,6/4,5/3,4/2,{16},{48},{8}1h[16:1],
{16}7,2h[16:1],,6,{8}3h[16:1],{4}5b,{24}5b/4h[8:1],6,7,8,{16},{48},{16}1/5,
8,{8}7-3[8:1],{16},,{24}7/4,3,2,{4}1,{24}4b/2b,3/5,4/6,5/7,{16},{48},{8}8h[16:1],
{16}2,7h[16:1],,3,{8}6h[16:1],{4}4b,{16}2/6,2/6,,,{6}3b/4b,
4/5,5/6,7b/5b,6/4,5/3,
4b/1b,2b/5b,3b/6b,{12}8b/4b,4h/8h,7b/3b,7h/3h,6b/2b,2h/6h,
{4}8b/4b,{2},{4}5b/1b,
{16}3b,5,1h,7,8b,6,2h,4,3b,6,2h,5,8b,3,7h,1,
{32}2b,3,4,5,8b,7,6,5,1b,2,3,4,7b,6,5,4,2b,3h,4h,5h,8b,7h,6h,5h,1b,2h,3h,4h,7b,6h,5h,4h[32:13],
{8}1b,{4},{8}8V27[8:3],{4},4-8[8:1],
{2}4b,{24}3b/7b,6/2,5/1,4/8,{4},{16},{48},{16}7,
3,8,4,1,5,2,6,{4}3h[4:1],7b-2[8:1],
7b,{16}7h/4-8[8:1],5,{8}6,{4}4b/2,{16}7h/5-1[8:1],4,{8}3,
{6}5/2h[12:1],{24}3,4,{8}5,8b,{4},,{32}8/3,
7,6,5,4,3,2,1,8b/3h,7,6,5,4/1h,3,2,1,{4}8b/3h,2b,
{12}6,5,6,5>8[8:1],6,5h[3:1],{4},6b,
{12}7h[24:1],8h[24:1],6h[24:1],1,7,6,7h[24:1],8h[24:1],1h[24:1],8-4[8:1],7,8,
{1}6b,
{24}1/5,2/6,3/7,4/8,5,6,7,8,1,2,3,4,{2}5/7h[2:1],
{16}8b,{4},{16}2b,,5/3h[16:1],{4},{24}5,6,7,8,{16},{48},{24}3,
4,8,7,2,1,2pp8[8:3],1,2,1,2,1,{8}2,{4},{8}6,
{4}4,{16}2,1,{8}8,{4}3-7[8:1],6v3[4:1],
3V57[4:1],{2},{4}3v6[4:1],
6bV42[4:1],{2},{4}6v3[4:1],
{24}3bV57[4:1],2,1,8,{4},{16},{48},{4}3v6[4:1],6pp1[2:1]*qq3[2:1],
{1},{8}4h[8:1],
6h[8:1],5h[8:1],7h[8:1],6h[8:1],8h[8:1],{16}2,1,2,3,
2,{8},{16}5,,5,{8},1,1,{4}2b/6b,
{8}4h[8:1],6h[8:1],5h[8:1],7h[8:1],6h[8:1],8h[8:1],{16}2,1,2,3,
{4}2,2h[2:1],{24}1,8,7,6,5,4,{4},{8}5h[8:1],
3h[8:1],4h[8:1],2h[8:1],3h[8:1],1h[8:1],{16}7,8,7,6,
7,{8},{16}4,,4,{8},8,8,{4}7b/3b,
{8}5h[8:1],3h[8:1],4h[8:1],2h[8:1],3h[8:1],1h[8:1],{16}7,8,7,6,
{2}7,{8}5,4,3,2,
{1}8/1h,
2/7h,
6/3h,
{2}4b/5h[2:1],{24}7b,8b,1b,2b,3b,4b,{4}5/1<6[8:1],
{32}5h,4h,3h,2h,,5,4,3,2,1,8,7,{16}6/4-8[8:1],4,4,4,{8}4b,{4},{16}8,
7,{8}6,{16}3,4,{8}5,{24}2b,1b,8b,7b,6b,5b,{4}4/8>3[8:1],
{32}4h,5h,6h,7h,,4,5,6,7,8,1,2,{16}3/5-1[8:1],5,5,5,{8}5b,{4},{24}2,
3,4,5/8,{16},{48},{8}3-7[8:1],{24}8,7,6,{8}5,{24}8,1,2,3,4,5,6,7,8,
{4}1b,{24}2,8,2,8,2,8,2,8,2,8,{16},{48},{24}3b,4,5,6,{16},{48},{4}8h,
{24}7,1,7,1,7,1,7,1,7,1,{16},{48},{24}6b,5,4,3,{16},{48},{24}2/1h[4:1],
3,4,5,{16},,,{48},{24}7/8h[4:1],6,5,{4}4,{48}1h[8:1]/2h,3h,4h,5h,6h,7h,{8}8h,
{32}2,3,4,5,2z6[8:1],1,8,7,{8}2w6[8:1]*-6[8:1],2b,
&lv_6=15.2
&des_6=Aquatf
&inote_6=
(220){4},,,,{1}2>2[4:15],
,,,{2}6h[4:3],
{6}4,4,4,
{1}4-1[2:1]*pp8[2:1],
{4}2h[8:7]/6h[16:3],6h[8:5],,,{8}5,
5,4/2,5/4,5/7,1/8h[8:3],{4}1-5[8:1],
{1}1bqq5[4:3],
7bp5[4:3],
{4}1h[4:1],{16}6,7/2,8/3,1/4,{12}5/2,5,5,{24}7>3[8:1]*-2[8:1],6,7,6,7,6,
{8}7b,{4},{8}5b,{4},,5b/2b,
{24}2/5,3/6,{6}4/7,{24}7/4,6/3,{12}5/2,{16},{48},{24}2/5,3/6,{6}4/7,
{24}7/4,6/3,{12}5/2,{16},{48},{24}2b/5b,3/6,{6}4/7,{24}7b/4b-8[8:1],6/3,{12}5/2,,{4}4/1,
{8}6/5,{24}5,4,3,7,6,5,4/2,{16},{48},{8}1-5[8:1],8<6[8:1],1,8b,
{12}3,3,3,3/5,3/6,3/7,{2}8h[4:1]/3v1[8:1],
{24}7b/4b,6/3,{12}5/2,{16},{48},{24}5/2,6/3,{6}7/4,{24}7/4,6/3,{12}5/2,{16},{48},{24}2/5,3/6,{6}4/7,
{24}7/4,6/3,{12}5/2,{16},{48},{24}8,7,8,7,8,7,{16}8,1,2,3,{4}6/4h[4:1],
{8}7,{24}7,6,5,{16}3,4,{8}2-6[8:1],,2,{4}8,
{16}1,1,{24}7,6,5,{12}4/2-6[8:1],2,2,{8}2/8z4[4:1],7,8/1,2,
{1}1pp8[2:3],
,5bpp1[2:1],
{8},4/2,3,5h[8:5],{4},4,
4-2[4:1],{8}6,6,{4}6,7/5,
{8}3,5,{4}4-2[4:1],6,{8}7,7,
{4}7-5[4:1],5-3[4:1],3V57[2:1],2h[4:1],
,2,{8}4,4,3,3,
{4}5-7[4:1],{8}3,3,{4}3,{8}6,5,
{2}4h[2:1],{8}5h[16:1],5h[16:1],{4}3h[2:1],
4,4,{8}2,1,8/7h[64:1],6,
7/8h[64:1],6,8/7h[64:1],6,7/8h[64:1],6,5h[16:1],5h[16:1],
{4}5/4-2[4:1],{8}6,6,{4}6,{8}5,5,
{4}4-1[4:1],{8}6,6,{4}6h[8:1],2h[8:1]/3b-5[4:1],
5-7[4:1],7-1[4:1],1-3[4:1],3,
{8}5,5,4,4,{4}6,6/5,
{1}7h[4:3]/6h[4:3],
{4}3h[8:19],6,4,2h[4:3],
,,,{8},8,
{2}8-4[2:1],{8}3,3,2,2,
{1}1V75[4:3]*V35[2:15],
,5V71[4:5],
,8V62[4:5],
,1V75[4:5],
{4},,,{8}7,7,
{2}7V58[2:1],{4}2,3,
{8}4,4,6,6,5,5,8,8,
{1}4>5[1:1],
{8}8,8,8,8,{4}8h[2:3],{8}7,6,
5,4,3,2,1,1s5[8:1],1h[64:1],1h[64:1],
{1},,{16}8b,
8,8,8,8,8,8,8,{32}7,6,5,4,3,2,1,8,7,6,5,4,3,2,1,8,
{1}7h[4:3]/1h[4:3],
{32}2b/5b,3/6b,4/7b,5/8b,6,7,8,1,2/5,3/6,4/7,5/8,6,7,8,1,2/5,3/6,4/7,5/8,6,7,8,1,2/5,3/6,4/7,5/8h[32:21],6,7,,1,
{1}2h[2:1],
{8}6h[16:1]/1h[16:1],8h[16:1]/3h[16:1],6h[16:1]/1h[16:1],3h[16:1]/8h[16:1],1h[16:1]/6h[16:1],8h[16:1]/3h[16:1],1/6,8/3,
8b/3b,6b/1b,8b/3b,6b/1b,8b/3b,6b/1b,{4}8/3>8[8:1],
{16}3b/7,6,5,4,{24}2,1,2,1,2,1,{12}3,8,4,7h[16:1],{24},{8}5h[16:1],
{4}7b/8b,4b/3b,{2}1b/8b,
{4}2h[8:1]/4h[8:1],{8}3,2h[8:1]/5h[8:1],,3,{4}2/6qq1[2:1],
{2}2h[4:1],{8}3,3,7,7,
7/3,6/4,{4}5-1[8:1],3,{8}4,4,
{4}5qq5[4:1]/8-5[4:1],,,{8}7,8,
{6}1b/7b,5b/3b,6b/2b,7b/3b,1b/8b,5b/4b,
{12}4b/5,6,4b/7,8,4b/1,2,4b/3,2,4b/1,8,4b/7,6,
{4}4h[2:1]/5s1[4:1],{2},{4}8h[1:2],
{1}2h[4:7],
,{64}2,
7h,{4},{16},{32},{8}7/1h,{4},{64}8,7h,{16},,,{32},7b/6b,
5b/8b,4bV63[16:5]/1bV72[16:11],3b/2b,{4},,{16},,{4}6,
{16}6,{8},{16}7/6,,,{64}7h,8h,{16},{32},{4}8-4[8:1]/1-3[8:1],1/8,
{8}5/7,{24}6-2[8:1],5,6,{8}5,{16}3,4,{8}5>2[8:1],5,1,{24}1,8,7,
{12}6/1,6/1,6/1,7/8v1[4:1],8/7,8/7,{4},,{8}5/3h[8:1],
{24}5,6,7,8/2,3,4,5/6,{16},{48},{4}7/6-2[8:1],{8}6/8,{24}8,7,6,
{12}5/1,1/5,1/5,{96}5/1,{64},{192},{96}6/2,{64},{192},{32}7/3,8/4,5,6,7,8,{8}1/5V37[4:1],2,{4}2,
{16}2,3,4/6,5,4/1,2,3/7,6,{4}5h[8:1]/3h[8:1],{24}4,4,4,4,4,4,
{8}4b-8[0.8182##0.1364],{4},,{8}6/2,{4}4b,
{32}1b/5b-1[8:1],6b/2b,7b/3b,8b/4b,{4},{16},,{32}8b/4b-8[8:1],3/7,2/6,1/5,{4},{16},,1h[16:5],
{4},{16}4,{8},{4}5h[4:1]/3-8[8:1],3,
{32}7,6,5,4,3,2,1,8,7/3,6/2,5/1,4,3,2,1,8,{12}7/3,3,3,4/2,4/2,4/2,
{4}1h[8:1]/5h[8:1],{12}2/4,3/5,4/6,{4}7/5v8[8:1],{8}5/4,3,
{4}2h[2:1],{32}7,6,{16}5,{8},4h,4h,3h/5h,4h/6h,
{4}5h/7h[4:1],{32}5,4,3,2,{16},,8,8,8,8,{24}7,6,5,1,2,3,
{8}4/7,6/4,5/4,{24}5/4,6,7,{8}8/3,8/2,8/1,{32}8/1,2,3,4,
{2}5V31[8:1]*V71[8:1],{4}5b/4b,{12}8/7,8/7,8/7,
{6}1h/6h[4:3],3h,5h,7h,5h,{24}3,5,3,4,
{2}3qq7[2:1],{4}5h[8:1],5,
{6}5h/6h,5h[2:1]/6h,4h,2h,{16},,,{48},{24}7,8,7,
{8}8p1[2:1],{4},,{8}6,6,5,
{6}7h/4h[2:1],5h,3h,1h,2/8,7/3,
{3}5/6h[2:1],{6}5h,{24}4,{16},{48},{24}4,{16},{48},{4}5/3,
{6}4h/2h[12:5],6h,8h,2/1,{24}3,4,3,4,3,4,{16},{48},{6}5/3,
{12}5h,4h,6h,5h,{8}8,7,6-3[8:1],5,
{1}6b/1b,
2b,
3b,
4h[4:3]/7bv6[2:1],
{4}1b/5h[4:1],{24}2,3,4,5/7,6,5,{12}4-8[8:1]/3-8[8:1],4/3,4/3,4/3,{16},,{24},{8}6/5,
4/3,{24}2q1[4:1],6,2,6,2,6,{4}2,7,
8b,{32}8,7/1,6/2,5/3,4,3,2,1,{12}8/4,8/4,8/4,2/6-2[8:1],{16},,{24},{8}6/2,
3,{16}8/4,7/3,6/2,5/1,{2}4v5[8:1]/8v1[8:1],
{4}2b/6h[4:1],{32}2,3,4,5,6,7,8,1,{12}2/4,2/5,2/6,7/2-6[8:1],{64},,{96},{32}8,7,6,5,
{4}2b/4b,{32}8,7,6,5,4,3,2,1,{16}4-1[8:1],8,4,8,{4}4,
8h[8:1]/5h[8:1],{24}8b/5b,7/4,6/3,2,1,8,6,5,6,5,6,5,6b,7,8,1,2,3,
{32}4/1b,5/2b,6/3b,7/4b,5b,6b,7b,8b,{24}1b-5[8:1],1,1b,1,1b,1,{2}1b,
