&title=XTREME
&artist=USAO
&first=0
&des=なないし||青初段
&des_4=青初段
&des_5=なないし
&des_6=青初段
&lv_4=9+
&lv_5=13
&lv_6=13
&inote_4=(205){1},
{1}1h[4:15]/8h[4:15],
{1},
{1},
{1},
{4}2,3,4,5,
{4}6,7,8,1,
{4}8,2,7,3,
{4}6,4,5,4b/5b,
{4}3h[4:3],5,5,6,
{4}6h[4:3],4,4,3,
{4}2,1,8,7,
{1}6<1[2:1],
{4}3/4,2,3/4,2,
{4}5/6,7,5/6,7,
{8}4,4,5,5,3,3,6,6,
{1}2b<7[2:1],
{4}6,6,6,6,
{4}5,5,5,5,
{4}4,4,3,3,
{1}2>5[2:1],
{4}7,7,7,7,
{4}8,8,8,8,
{4}1,1,1,1,
{4}2,2,2,2,
{4}3/4,2,3/4,2,
{4}5/6,7,5/6,7,
{4}4,5,4,5,
{2}4h[4:1],{8}3/5,3/5,,,
{4}2h[4:1],1,7h[4:1],8,
{4}6h[4:1],5,3h[4:1],4,
{4}6h[4:1],5,4h[4:1],5,
{2}5h[4:1],{8}4/6,4/6,,,
{4}4,4,5,5,
{4}3,3,6,6,
{4}2,2,7,7,
{1}1bw5[2:1],
{8}1,8,1,,{4}3/4,1/8,
{4}5/6,1/8,3/4,1/8,
{4}5/6,1/8,3/4,1/8,
{1}5>2[2:1]/6<1[2:1],
{8}8,1,8,,{4}5/6,1/8,
{4}3/4,1/8,5/6,1/8,
{8}1,1,2,2,3,3,4,4,
{1}5<8[2:1],
{4}4/5,2/3,4/5,2/3,
{4}4/5,2/3,4/5,2/3,
{4}4/5,2/3,4/5,2/3,
{1}2-7[2:1]/3-6[2:1],
{4}4/5,6/7,4/5,6/7,
{4}4/5,6/7,4/5,6/7,
{2}4h[4:1]/5h[4:1],{8}3/6,3/6,,,
{1}1>4[2:1]/8<5[2:1],
{1}4>5[2:13],
{1},
{1},
{1},
{1},
{1},
{1},
{1}4w8[2:1],
{4}2h[4:3],1,,1,
{4}7h[4:3],8,,8,
{4}2h[4:3],1,,1,
{4}7h[4:3],8,,8,
{4}3h[4:3],4,,4,
{4}6h[4:3],5,,5,
{4}3h[4:3],4,,4,
{4}6h[4:3],5,,5,
{4}4,3,2,1,
{4}5,6,7,8,
{4}3,4,5,6,
{1}8v5[2:1]*v3[2:1],
{1}1pp4[2:3]/8qq5[2:3],
{1},
{1}4>5[2:3]/5<4[2:3],
{1},
{1}4b/5b,
{4}3/4,3,3/4,3,
{4}4/5,5,4/5,5,
{4}3/4,3,3/4,3,
{4}6/5,6,6/5,6,
{4}7/8,7,7/8,7,
{4}1/8,1,1/8,1,
{4}7/8,7,7/8,7,
{4}1/2,2,1/2,2,
{4}8,8-5[8:1],1,1-4[8:1],
{4}8,8-5[8:1],1,1-4[8:1],
{4}7,7-5[8:1],2,2-4[8:1],
{4}7,7-5[8:1],2,2-4[8:1],
{4}7,7,8,8,
{4}1,1,2,2,
{4}3h[4:1],1,6h[4:1],8,
{1}1w5[2:1],
{1}8p5[1:1]/1h[4:5],
{4},,1,1b/8b,
{4}1/8,3/4,1/8,6/5,
{4}1/8,3/4,1/8,6/5,
{4}4/5,1/3,4/5,6/8,
{4}4/5,1/3,4/5,6/8,
{4}5/6,5/6,4/5,4/5,
{1}3>8[2:1],
{4}7-4[8:1],8,2-5[8:1],1,
{4}7-4[8:1],8,2-5[8:1],1,
{4}7-4[8:1],8,2-5[8:1],1,
{1}1w5[2:1],
{4}3-8[8:1],4,6-1[8:1],5,
{4}3-8[8:1],4,6-1[8:1],5,
{4}3-8[8:1],4,6-1[8:1],5,
{4}4,3/6,2/7,1b/8b,
{4}4/5,1/3,4/5,1/3,
{4}4/5,1/3,4/5,1/3,
{4}4/5,1/3,4/5,1/3,
{1}1-6[2:1]/3-6[2:1],
{4}4/5,6/8,4/5,6/8,
{4}4/5,6/8,4/5,6/8,
{1}6-3[2:1]/8-3[2:1],
{4}1/8,2/7,3/6,{8}4/5,4/5,
{1}4b/5b,,E
&inote_5=(205)
{4},,,,
{48}1b/8b,2/7,3/6,4>5[8:27]/5<4[8:27],,,
{8},{4},{2},{1},,,
{8}2,,3/4,,7,5,,6,
{8}1,,2,,3,,4,,
{8}6,5,7,,3,4,2-6[8:1],1,
{8}2b/8bw4[8:1],,8b,,2b-5[8:1]/6b-1[8:1],7b/3b,2b/6b,,
{8}7-1[8:1],7,7-4[8:1]/5,,7/3,,2,{16}3,4,
{8}2-8[8:1],,2-5[8:1]/4,,2/6,7,7,7,
{8}7-3[8:1],,7/8,,2-6[8:1],,2/1,,
{8}7v4[8:1],4V61[8:3]*V62[8:3],,,,,,,
{8}5/4,3,4/2,3,4/5,6,5/7,6,
{8}5/3,2,8/1,2,4/6,7,8/1,7,
{16}4,5,3,6,2,7,1,8,
{32}2,3,4,5,6,7,8,1,2,3,4,5,6,7,8,1,
{4}2bz6[2:1]/6bz2[2:1],,,,
{32}1b-3[8:1]/7b,6,5,4,
{8},1-4[8:1],5,1-5[8:1],6,1^3[8:1],7,1q5[8:1],6,1v6[8:1],7,1,8,1,{16}2/6,3/7,4v2[8:1]/8v6[8:1],,,,,,,,1h[8:1]/7h[8:1],,,2h[8:1]/6h[8:1],,,3/5,,
{8}7b/8b,,6/4,1b/2b,,3/6,1b/8b,,
{16}2b/6b,3,4,5,6,7,8,1,
{16}2,3,4,5,6,7,8,1,
{16}2b/7b,6,5,4,3,2,1,8,
{16}7,6,5,4,3,2,1,8,
{16}7b/3b,4,5,6,7,8,1,2,
{16}3b/6b,5,4,3,2,1,8,7,
{16}6b-1[8:1]/2b-5[8:1],,,,2b/6b,,,,3b-8[8:1]/7b-4[8:1],,,,3b/7b,,,,
{4}2h[8:1]/5h[8:1],1h[8:1]/8h[8:1],4h[8:1]/7h[8:1],1h[8:1]/8h[8:1],2h[8:1]/4h[8:1],7h[8:1]/8h[8:1],7h[8:1]/5h[8:1],1h[8:1]/2h[8:1],
{4}2h[8:1]/5h[8:1],6h[8:1]/8h[8:1],4h[8:1]/7h[8:1],1h[8:1]/3h[8:1],8b-4[8:1]/2b-5[8:1],8b/2b,{8}1b-5[8:1]/7b-3[8:1],1b/7b,,,
{4}7h[8:1]/4h[8:1],8h[8:1]/1h[8:1],5h[8:1]/2h[8:1],8h[8:1]/1h[8:1],7h[8:1]/5h[8:1],2h[8:1]/1h[8:1],2h[8:1]/4h[8:1],8h[8:1]/7h[8:1],
{4}7h[8:1]/4h[8:1],3h[8:1]/1h[8:1],5h[8:1]/2h[8:1],8h[8:1]/6h[8:1],1-5[8:1]/7-4[8:1],1/7,{8}8-4[8:1]/2-6[8:1],8/2,,,
{4}7-4[4:1],8,1-6[4:1],2,3-8[4:1],4,5-2[4:1],6,
{4}7-3[8:1],1-5[8:1],3-7[8:1],5-1[8:1],6bV85[2:1]*qq5[2:1],,,,
{8}8b-4[8:1]/3b,4b/7b,8b/3b-5[8:1],,3b-8[8:1]/7b-4[8:1],,3b/7b-1[8:1],,3b-8[8:1]/7b-4[8:1],,3b-5[8:1]/7b,,3b-8[8:1]/7b,,3b-5[8:1]/7b-1[8:1],{16}5,6,{8}7b-4[8:1]/3b,,7b-1[8:1]/3b-5[8:1],2,7b/3b-8[8:1],,{16}7b-1[8:1]/3b,6,{8}5,3b-8[8:1]/7b-4[8:1],4,3b-5[8:1]/7b-1[8:1],,3b/7b,,2/6,,
{8}1-5[8:1]/6,5/2,1/6v3[8:1],,4v1[8:1],,8v5[8:1],,2v7[8:1],,6v1[8:1],,4v7[8:1],,5v2[8:1],,3v8[8:1],3,6-1[8:1],6,2v5[8:1],2,7-4[8:1],7,
{8}1bw5[2:1],,,,,,,,
{4}8<2[4:1],8b/2,8>6[4:1],8b/6,8<2[4:1],8b/2,1>7[4:1],1b/7,
{4}1<3[4:1],1b/3,1>7[4:1],1b/7,
{4}8bw4[8:1],8b,1bw5[8:1],1b,
{4}5<3[4:1],5b/3,5>7[4:1],5b/7,5<3[4:1],5b/3,4>6[4:1],4b/6,
{4}5bw1[8:1],5b,{8}4b-1[8:1]*-7[8:1],4b,,,
{1}2qq3[2:1]/6qq7[2:1],
{4}4>5[4:13]/8h[2:7],,,,
{4},,,,
{4},,,,
{4},,,,
{4}5<4[4:13]/1h[2:3],,,,
{4},,,,
{4}5h[8:1],6h[8:1],7h[8:1],8h[8:1],
{4}1q5[4:1],,,,
{8}7-3[8:1],,7/8,,2-5[8:1],1,2/8,,
{8}7-3[8:1],,7/8,,2-5[8:1],1,2/8,,
{8}7-3[8:1],,7/1,,2-5[8:1],8,2/6,,
{8}7-3[8:1],,7/1,,2-5[8:1],8,2/6,,
{8}7-4[8:1],,7/8,,2-6[8:1],5,2/8,,
{8}7-4[8:1],,7/8,,2-6[8:1],5,2/8,,
{8}7-4[8:1],,7/3,2,1w5[8:1],,1,,
{1}3pp2[2:1]/7pp6[2:1],
{8}8-6[8:1],2,8-5[8:1],4,8-4[8:1],3,8^6[8:1],2,8p4[8:1],3,8v3[8:1],2,8,1,
{8}8,{16}7/3,6/2,{8}5/1-3[8:1],7,
{8}1-4[8:1],5,1-5[8:1],6,1,7,
{8}3b/8b,4,5,1b/6b,5,4,2b/7b,,
{16}6b/5b,,6/5,,3/4,,3/4,,
{16}5/7,,5/7,,2,1,2,1,
{16}2,,3/5,,7,8,7,8,7,,3,2/4,,6,7/5,,2/8,,7,1/6,,2,3/8,7,6,5,{32}8/4,1,2,3,4,5,6,7,8,1,2,3,
{1}4bqq5[2:1]/8bqq1[2:1],
{1}3bV51[2:1]/6bV48[2:1],
{8}2/4h[8:1],3,4/5,6,7/4h[8:1],6,5/3,2,5h[8:1]/1,2,3/6,7,5/8,4/7,2/5,3/6,
{8}7/5h[8:1],6,5/4,3,2/5h[8:1],3,4/6,7,4h[8:1]/8,7,6/3,2,4/1,5/2,6/3,7/4,
{8}6/1h[8:1],7,8/2,3,4/1h[8:1],3,2/7,6,8h[8:1]/5,6,7/2,3,1/4,3/8,1/6,2/7,
{8}3/8h[8:1],2,1/7,6,5/8h[8:1],6,7/2,3,1h[8:1]/4,3,2/7,6,
{24}4,5,4,5,4,5,{8}3/6,3/6,
{8}7b/8b-4[8:1],1,2/8,,6/8-4[8:1],1,3/8,,2-5[8:1],5v3[8:1],,,7-4[8:1],4v6[8:1],,,
1b-5[8:1],8,7/1,,3/1-5[8:1],8,6/1,,7-4[8:1]/4-1[8:1],,,,3-8[8:1],8v2[8:1],,,
{8}7-3[8:1],5,7,1,2-5[8:1],{16},8,2,,7,,
{8}6V84[4:1],5,4,3,2V48[4:1],1,8,7,
{8}6,6,5/7,5/7,3,3,2/4,2/4,
{16}7,6,5,4,{32}1w5[4:1],2,3,4,5,6,7,8,
{2},
{4}6h[8:1]/2h[8:1],7h[8:1]/3h[8:1],8h[8:1]/4h[8:1],5h[8:1]/1h[8:1],
{4}8h[8:1]/4h[8:1],7h[8:1]/3h[8:1],6h[8:1]/2h[8:1],5h[8:1]/1h[8:1],
{8}2-6[8:1],6,2/8,,7-3[8:1],3,7/1,,
{8}2v5[8:1],5V38[8:3]*V37[8:3],,,,,,,
{8}6-4[8:1],6,6-1[8:1]/8,,6/2,,3,{16}2,1,
{8}3-5[8:1],,3-8[8:1]/1,,3/7,6,6,6,
{8}4/6-2[8:1],,6/1,,5/3-7[8:1],,3/8-2[8:1]*-6[8:1],,
{8}8b-4[8:1],,8b^3[8:1]*^5[8:1],,8bw4[8:1],,8b,,
{16}6/4h[8:1],,8,,7h[8:1]/5,,3,,5/2,,6,8,6,,7/4,,
{16}3/5h[8:1],,1,,2h[8:1]/4,,6,,4/7,,3,1,3,,5/2,,
{16}6h[8:1]/4,,2,,5/3h[8:1],,7,,6/1,,3,4,3,,8/2,,
{16}3h[8:1]/5,,7,,4/6h[8:1],,2,,8/3,,6,5,6,,1/7,,
{8}2-6[8:1],4,2,8,7-4[8:1],{16}8,1,7,,2,,
{8}3V15[4:1],4,5,6,7V51[4:1],8,1,2,
{8}3-7[8:1],,3/8,,4/6-2[8:1],,6/1-7[8:1]*-3[8:1],,
{8}1b-5[8:1],,1b^6[8:1]*^4[8:1],,1bw5[8:1],,1b,,
{4}3v1[8:1],8v5[8:1],6v4[8:1],3v8[8:1],
{4}1v7[8:1],6v3[8:1],4v2[8:1],1v6[8:1],
{8}7-3[8:1],,7/8,,2-6[8:1],,2/1,,
{4}8bw4[8:1],8b,1bw5[8:1],1b,
{4}6v8[8:1],1v4[8:1],3v5[8:1],6v1[8:1],
{4}8v2[8:1],3v6[8:1],5v7[8:1],8v3[8:1],
{4}2v4[8:1],6,{24}8,1,8,1,8,1,{8}7/2,7/2,
{4}2b-8[8:1]/6b-4[8:1],2b-5[8:1]/6b-1[8:1],2b/6b,{8}4bv1[8:1]/8bv5[8:1],4h[8:1]/8h[8:1],
{1},,E
&inote_6=(205){1},
{48}1b/8b,2b/7b,3b/6b,{16}4b>5[8:27]/5b<4[8:11],{8},{4},{2},
{1},
{4}3,3h[2:1],,,
{1}1>4[16:7],
{8}3/4,3,3/4,,{4}3/4,3/5,
{8}6/5,6,6/5,,{4}6/5,6/4,
{8}3,5,2,6,1,7,8b-4[8:1],8b,
{4}8bv5[8:1]*v3[8:1],8b<5[8:1]*>3[8:1],8bw4[8:1],8b,
{8}7-4[8:1],8,7,,1-5[8:1],,1,{16}8,7,
{4}6-1[8:1],5/6,{8}3,4,2>4[8:1],1,
{4}2-6[8:1],1/2,7-4[8:1],7/8,
{8}1-4[8:1]/5-8[8:1],4>1[4:1]/8<5[4:1],{4},,,
{8}2/4,2,2/4,2,2/5,2,2/5,2,
{8}6/2,6,6/3,6,6/4,6,6/5,6,
{16}4,5,3,6,2,7,1,8,
{16}2,1,3,8,4,7,5,6,
{1}5bw1[2:1],
{8}2-5[8:1],2,1-6[8:1],1,2-4[8:1],2,1-7[8:1],1,
{8}2-5[8:1],2,1-6[8:1],1,2-4[8:1],2,2,{16}7,8,
{4}1bw5[8:1],1,{16}2h[8:1]/8h[8:1],,,3h[8:1]/7h[8:1],,,4/6,,
{4}5b,{16}3,4,{4}3b,{16}6,5,{4}6b,
{16}3b,4,3,4,2,5,2,5,1,6,1,6,8,7,8,7,
{16}1b,8,1,8,2,7,2,7,3,6,3,6,4,5,4,5,
{16}4b,3,2,1,5,6,7,8,{32}2,3,4,5,6,7,8,1,2,3,4,5,6,7,8,1,
{4}2b-6[8:1],2b,7b-4[8:1]/8b-3[8:1],7b/8b,
{8}1-4[8:1],8,8,8,7-4[8:1],8,8,8,
{8}1-4[8:1],8,8,8,7-4[8:1],8,8,8,
{8}2-5[8:1],1,1,1,8-5[8:1],1,1,1,
{4}2b-6[8:1]/8b-4[8:1],2b/8b,{8}7b-2[8:1],7b,,,
{8}4-1[8:1],5,5,5,6-1[8:1],5,5,5,
{8}4-1[8:1],5,5,5,6-1[8:1],5,5,5,
{8}3-8[8:1],4,4,4,5-8[8:1],4,4,4,
{4}1-5[8:1]/7-3[8:1],1/7,{8}2-7[8:1],2,,,
{4}8>3[4:1],3<6[4:1],6<1[4:1],1>4[4:1],
{4}4-7[4:1],7-2[4:1],2-5[4:1],5,
{8}1,1,6,6,2,2,7,7,
{1}1bpp4[2:1]/8bqq5[2:1],
{8}1/8,1/8,{4}1b/8b-4[8:1],{24}1-5[8:1]/8,2,3,{8},{24}1/8-4[8:1],7,6,{8},
{24}1-5[8:1]/8,2,3,{8},{24}1/8-4[8:1],7,6,{8},{24}1/8,2,3,{8},1/8,{16}3,4,
{8}3>8[8:1],,3/7<4[8:1],7,{4}7,{16}1,2,{8}3,
{4}4-8[8:1]/5-7[8:1],4-2[8:1]/5-1[8:1],4-8[8:1]/5-7[8:1],4b/5b,
{8}5/6,6,5/6,,{4}1/7,2/8,
{8}3/4,3,3/4,,{4}2/8,1/7,
{8}5/6,6,4/6,6,3/5,3,3/4,3,
{4}3bqq1[4:1],1>4[4:1],,,
{4}8<5[8:1],{24}4/8,3,2,{8}1,{4}1>4[8:1],{24}1/5,6,7,{8}8,
{4}8<5[8:1],{24}4/8,3,2,{8}1,{4}1>4[8:1],{24}1/5,6,7,{8}8,
{4}8<5[8:1],{24}4/8,3,2,{8}1,{4}1>4[8:1],{24}1/5,6,7,{8}8,
{4}8b>3[8:1]*-3[8:1],8b,{8}6b>4[8:1],6h[8:3],,,
{4}8>3[8:1],{24}8/4,5,6,{8}7,{4}7<4[8:1],{24}7/3,2,1,{8}8,
{4}8>3[8:1],{24}8/4,5,6,{8}7,{4}7<4[8:1],{24}7/3,2,1,{8}8,
{4}8bw4[8:1],8b,{8}8b-4[8:1],8b,,,
{1}2qq3[2:1]/6qq7[2:1],
{1}4/5,
{1},
{1}3/6,
{1},
{512}7h[512:1],2,{256},{128},{64},{32},{16},{8},{4},{2},
{1},
{1}1h[4:3]/8h[4:3],
{1}1V37[2:1]/8V62[2:1],
{4}8<5[2:3],2,,2,
{4},2,,2,
{4}1>4[2:3],7,,7,
{4},6,,6,
{4}5<8[2:3],3,,3,
{4},3,,3,
{4}4>1[2:3],6,,6,
{4},7,,7,
{4}8h[1:1],1,2,3,
{4}4h[1:1],8,7,6,
{4}5h[1:1],4,3,2,
{8}1b,,5,1b/6b,,4,2b/7b,,
{8}4,5,3,6,2,7,{16}3,4,3,4,
{8}3b,2/5,{16}1,8,1,8,1,,2h[16:1]/7h[16:1],,,3h[16:1]/6h[16:1],,,
{16}4/5,,6,5,,3,{8}4,{16}1,8,1,8,1,8,1,8,
{1}1bw5[2:1],
{48}1b/8b,2/7,3/6,{16}4h[16:11]/5h[16:11],{8},{4},{2},
{8}2/6,{16}7-4[8:1],8,{8}7,7,3,2/5,6,3/7,
{8}1/2,{16}2-5[8:1],1,{8}2,2,6,{16}7,8,{8}7,1/8,
{16}2-5[8:1],1,2,1,{8}2,6,{16}7-4[8:1],8,7,8,{8}7,1,
{8}3,{16}5,4,{8}5,3/6,{32}1/8,2,3,4,5,6,7,8,{4}1/5,
{8}2/5,{16}3-8[8:1],4,{8}3,3,7-4[8:1],1,2/7,3,
{8}6-1[8:1]/5,{16}6,5,{8}6,2,4/3-8[8:1],{16}3,4,{8}3,7,
{16}1h[16:3]/2-5[8:1],,,2,{8}1,6,{16}7-4[8:1]/8h[16:3],,,7,{8}8,3,
{16}1,8,2,7,3,6,4,5,{32}4,3,2,1,8,7,6,5,{8}4b/8b,3/7,
{16}2/6,3,4,5,1,8,7,6,8,1,2,3,5,6,7,8,
{8}1bq5[8:1]*p5[8:1],1b,,,1b-5[8:1],1b,,,
{16}1,8,7,6,1,2,3,4,8,7,6,5,3,2,1,8,
{16}4,5,6,7,8,1,2,3,7,6,5,4,8,1,2,3,
{8}4-8[8:1],5,4,5,6-1[8:1],{16},5,{8}6,2,
{8}3/4,3/4,4/5,4/5,5/6,5/6,4/5,4/5,
{16}4b,5,3,6,2,7,1,8,{8}1,3/7,4/6,2/8,
{16}1,1,1,1,1,1,1,1,{2}1<6[8:1],
{32}1b,2,3,4,5,6,7,8,1,2,3,4,5,6,7,8,1,2,3,4,5,6,7,8,1,2,3,4,5,6,7,8,
{32}1,2,3,4,5,6,7,8,{4}1h[8:1],{32}1/8,7,6,5,4,3,2,1,{4}4b/8b,
{8}5/7,6,3/5,4,5/7,6,3/5,4,
{8}8-6[8:1],1-3[8:1],8v5[8:1],1v4[8:1],{2}8,
{8}3-8[8:1]/4,2,3/4,,{16}5-1[8:1],4,5,4,{4}5,
{8}6-1[8:1]/5,7,6/5,,{16}4-8[8:1],5,4,5,{4}4,
{8}5/6,6,6/7,7,7/8,8,1/8,1,
{4}1/8-4[8:1],8,{32}1,2,3,4,8,7,6,5,{4}1b,
{8}6/4h[8:1],8,7h[8:1]/5,3,5/2,{16}1,8,{8}1,7/4,
{8}3/5h[8:1],1,2h[8:1]/4,6,{16}1,8,1,8,{8}1,2/7,
{8}3/5,4,5/7,6,3/5,4,5/7,6,
{8}1-3[8:1],8-6[8:1],1v4[8:1],8v5[8:1],{2}1,
{8}3pp7[2:1],3,3,,{4}8-4[8:1],8,
{8}6qq2[2:1],6,6,,{4}1-5[8:1],1,
{8}4,4,3/6,3/6,2/7,2/7,1/8,1/8,
{32}8,7,6,5,1,2,3,4,{4}8b,{32}1/8,2,3,4,5,6,7,8,{4}1b/5b,
{4}7-4[8:1]/8,7b/8b,1/8-4[8:1],1b/8b,
{4}1-5[8:1]/2,1b/2b,3-8[8:1]/4,3b/4b,
{4}4-8[8:1]/5,4b/5b,5-1[8:1]/6,5b/6b,
{4}4bw8[8:1],4b,5bw1[8:1],5b,
{8}4h[8:1]/5,7,3/5h[8:1],4,4h[8:1]/6,5,3/6h[8:1],2,
{8}4h[8:1]/5,7,3/5h[8:1],4,4h[8:1]/6,5,3/6h[8:1],2,
{16}1,2,3,4,{32}8,7,6,5,4,3,2,1,8/4,5,6,7,8,1,2,3,{8}4/8,1/5,
{4}2b<7[8:1]/6b>3[8:1],2b/6b,1h[8:1]/5h[8:1],{8}4/8,{32}4b/8b,1/5,2/6,3/7,
{1}4/8,,E
