&title=不孤独摇滚(海沙风云真结局ed)
&artist=Ray雷
&first=0.06999999
&des=⑨
&des_5=
&lv_5=14
&inote_5=(165){4},,,,{1}Cf`E1`B8`B1`B5`E5`B4`B7`B6`B3`B2,
{16}3,4,3,4,,,{8}6h[8:1]/4h[8:1],,5h[8:1]/3h[8:1],,4h[8:1],
5,4h[8:1],6,4h[8:1],7,4h[8:1],8,4h[8:1],
8,7/2-5[8:1],,2/7-3[8:1],,7/1-5[8:1],,1/7,
8h[8:1],4,6/3h[8:1],5,4/6h[8:1],3,{16}2-5[8:1],1,2,1,
{4}2b,6h[8:1]/4h[8:1],5h[8:1]/3h[8:1],4h[8:1]/2h[8:1],
{8}5/1h[8:1],6,2/7h[8:1],3,8/4h[8:1],7,3/6,2,
2/6,3/5,4,2,3/5,6,7/4,8,
{32}1b/Cf,2,3,4,5,6,7,8,{4}1h[16:3],{16}8,2h,6,4h,8,2h,6,4h,
{8}8b,2,4/2>5[8:5],4,5,5x,6,6x,
7,7x,8,1/8x,8,1/5,{4}3/7-4<8-5[4:7],
{8}1,1,{4}1xh[8:1],{8}2,2,{4}2xh[8:1],
{8}3,3,{4}3xh[8:1],{8}4,4,3xh[8:1],6x,
1-5[8:1],8,1/7<4[8:1],8,2/7-3[8:1],2,7/1-4[8:1],2,
1/7-5[8:1],5-8[8:1],2/7,3,4-1[8:1],5,4/6,7,
8/2,1h[8:1],{16},,1,8,{8}1,{16}2,7,{8}2,{16}6,3,
{32}8b/Cf,7,6,5,4,3,2,1,{4}8h[8:1],{16}1h,7,3h,5,1h,7,3h,5,
{4}1b-5[8:1],{8}1,8,2/8-3[8:1],1,6/8-5[8:1],7,
{4}1/8>3[8:1],{8}8/7,6,5-7[8:1]/4-2[8:1],3/6,{4}5/4,
{8}1/8b-4[8:1],7,6/8,7,2/8b-4[8:1],7,6/8,7,
2/8b-3[8:1],1,6/8-4[8:1],7,{4}4/8b,6/2,
{16}1x<6[8:1],,,2,{8}1x,3,{16}4x>1[8:1],,,5,{8}4x,6,
{16}7x<4[8:1],,,8,{8}7x,1,{2}2h[8:3],
{16}2,1,2,1,3,8,3,8,4,7,4,7,3,4,3,4,
2>8[4:1],5,2,5,{4}2,5h[8:1],{16}3,3,5,5,
{8}4x,5,4,5,3x,5,4,5,
2x,5,4,5,3x,5,4,5,
1x,5,4,5,3x,5,4,5,
8x,5,4,5,3x,5,4,5x,
3/5x,4,6/4,6,6/3x,3,7/3,7,
1/7x,1,8/1,8,8/2x,2,7/2,7,
7x/3,4,5/7,6,5/2,3,4/8,7,
6/3,2,7/1,6,{16}3,3,5,5,4,4,6,6,
{8}8-4[8:1],8,3,2,{16}6/1-5[8:1],,,2,{8}1,4,
3-8[8:1],3,4,5,6-1[8:1],6,4,2,
8<4[16:3],8,1,2,{6}3h/6-1[8:1],{12}3h,6,{6}3h,
4h/2v5[8:1],{12}4h,2,{6}3h,{24}2h[4:1],,,7,,,{4}E1f,
{1},,{16}4,
5,3,5,4,5,3,5,2,1,2,8,2,1,2,8,
{4}3bv8[8:1],{8}5b<4[8:3],7bh[2:1],,,,,8/2,
3,4/5,2,1/7,6,{16}4,5,{8}2,
1/3,4,5/6,3,2/8,7,{16}4,6,{8}2,
1/7,5,3/4,6,8/2,4,{16}6,5,{8}7,
1h[4:1],7,2,8h[8:1],{32}5,4,3,2,1,8,7,6,{4}5/1b,
{1},,,{16}3,
4,2,5,3,4,2,5,1,6,8,6,1,6,8,6,
{1}7,
E
