&title=너로피어오라(Flowering)
&artist=달의하루
&first=0
&des=bbben
&lv_5=12
&inote_5=(148)
{1},,,,
{4},,{16}4,5,4,,3b/6b,,,,
{4}4-1[8:1]/5,7,5<1[8:1]/4,
{16}2,,3,4,{4}5-1[8:1],
{16},,6,5,4,,1,2,{4}3,
{4}5-8[8:1]/4,2,4>8[8:1]/5,
{16}7,,6,5,{4}4-8[8:1],
{16},,3,4,5w1[8:1],,,,,,,,
{4}4h[4:1]/5,2,5h[4:1]/4,
{16}7,,1,2,{4}3,
{16},,4,6,4,,3,5,{4}3,
{4}4h[4:1]/5,2,6h[4:1]/4h[4:1],
{16},,3,5,3,{4},
{16},1,7,{8}1,6,3,4,
{4}3bp6[2:1],,,,7p2[2:1],,,,
3qq4[2:1]/5,,,,6q8[2:1],,,,
3V17[2:1]/7V53[2:1],,,,3pp5[4:1]/7pp1[4:1],,,,
4-2[4:1]/8-6[4:1],,,,
{16}37,,,37,,,37,,
2,1,2,8,2,1,2,,
{4}7<4[2:1],3,3,3,
2-6[2:1],8,8,8,
3qq4[2:1]/5,6,6,6,
7-2[2:1],4,4,4-6[8:1]*-2[8:1],,
{16}64,,,,35,,,6,64,,3,,4,5,,3,4,,45,,4,5,,5,6,,34,,
{1}2q4[4:2]/5<2[4:2],
{16}47,,,25,,,38,,2,1,2,1,3h[64:1],,7h[64:1],,
{8}45,4,4,4,4/1b,4,4,4,45,4,4,4,4/2b,4,4,4,
45,5,5,5,5/8b,5,5,5,5/2h[64:1],5/2h[64:1],5,5,5/7b,5,5,5,
45,4,4,4,4/1b,4,4,4,45,4,4,4,4/2b,4,4,4,
45,5,5,5,5/8b,,{16}2,8,2,8,
{8}1-5[8:1],,,,,,,,
1-5[8:1],5-1[8:1],,,,
35,62,17,8-4[8:1],4-8[8:1],,,,
71,26,35,
4v7[8:1]/6,5,42,3,
3/5v2[8:1],4,57,6,35,
{16}4,4,
{8},3-7[8:1],5-1[8:1],,,,
8-4[8:1],4-8[8:1],,,,
64,37,82,1-5[8:1],5-1[8:1],,,,
28,73,64,
5v2[8:1]/3,4,57,6,
6/4v7[8:1],5,42,3,64,
{16}5,5,
{8},1-3[8:1],1-5[8:1],,,,
{16}3-6[16:1],,,7-2[16:1],,,4-8[16:1],,,,,5,5,,,,
{16}6-3[16:1],,,2-7[16:1],,,5-1[16:1],,,,,4,4,,,,
{16}7-2[16:1],,,3-6[16:1],,,8,,,,{8}8,7,36,5qq1[2:1]*pp1[2:1],,,,,,,,
{16}13,,,86,,,13,,,68,,45,45,,,,
{16}42,,,57,,,42,,,75,,18,18,,,,
{16}25,,,47,,,25,,,,36,,18,,27,,7h[2:1]/2h[4:1],,,,,,,,
{32}2,3,4,5,6,7,8,1,2,3,4,5,6,7,8,1,
{8}5,5,3,3,6,6,2,2,5,5,1,1,4,4,8,8,1,1,5,5,2,2,6,6,
{16}3,,5,53,,4,46,,5,52,,1,{32}17,6,5,4,,,,,
{16}2h[64:1],,1h[64:1],,8h[64:1],,7h[64:1],,
56,,,45,,,43,,
{16}2h[64:1],,1h[64:1],,8h[64:1],,7h[64:1],,
5b/6,,c,4b/5,,,4/3b,,
{8}18,,2-6[8:1],13,2,,8p3[8:1]/7<4[8:1],12,
{16}87,,,12,,,87,,6h[64:1]/5h[64:1],,,4h[64:1]/5h[64:1],,,4h[64:1]/3h[64:1],,
2,1,2,1,2h[8:1],,4,3,4,3,4,3,4h[8:1],,,,
8,7,8,7,8h[8:1],,6,5,6,5,6,5,6h[8:1],,,,
12,,,18,,,87,,13,,,28,,,17,,3/8h[64:1],,,2h[64:1]/7,,,1h[64:1]/6h[64:1],,
{32}15,26,37,48,
{8},,,
{4}5h[4:2],,6h[4:2],,7h[4:2],,8V24[4:2]*V64[4:2],,,,4qq4[4:4]*pp4[4:4],,,,,,
4h[4:2],,3h[4:2],,2h[4:2],,,1qq7[4:1],7pp5[4:2],,5p3[4:2],,3>5[4:2],,,,
{16}12,12,,38,,,27,,,16,,,
{32}1,2,3,4,5,6,7,8,
{8}1-5[8:1],5-1[8:1],,,,
35,62,17,8-4[8:1],4qq7[2:1],,,,
,,,
4v7[8:1]/6,5,42,3,
3/5v2[8:1],4,57,6,35,
{16}4,4,
{8},2-6[8:1],7-3[8:1],2,7,,
{8}8-4[8:1],4-8[8:1],,,,
64,37,82,1-5[8:1],5v8[8:1],,,,
46,37,28,
5v2[8:1]/3,4,57,6,
6/4v7[8:1],5,42,3,64,
{16}5,5,
{8},7s3[8:3],,7h[4:1],,,
{16}8h[16:3],,,6h[16:3],,,4h[16:3],,,2h[16:2],,8,8,,,,
{16}1h[16:3],,,3h[16:3],,,5h[16:3],,,7h[16:2],,1,1,,,,
{16}8h[16:3],,,6h[16:3],,,4h[16:2],,,,26,,17,,8qq4[4:2]*pp4[4:2],,
{4}8,,,,
{16}13,,,86,,,13,,,68,,45,45,,,,
{16}42,,,57,,,42,,,75,,18,18,,,,
{16}25,,,47,,,25,,,,36,,18,,27,,7h[4:1]/2h[4:1],,,,,,,,
4,5,3,6,2,7,1,8,
{8}1-4[8:1],,1/8-5[8:1],,1V36[4:1]/8,,18,,,
{16}1,,8,,27,27,,,36,,36,,,,
{8}5-8[8:1]/4,,5/4-1[8:1],,5V72[4:1]/4,,54,,,
{16}5,,4,,63,63,,,72,,72,,,,
{8}4>2[8:1]/5<7[8:1],,5-8[8:1]/4-1[8:1],,5pp8[4:1]/4qq1[4:1],,,,,
{16}5,,4,,63,63,,,72,,72,,,,
{8}45,36,27,1p4[8:1]/8q5[8:1],18,,,45,,36,27,18,
{32}2,3,4,5,6,7,8,1,2/6b,
