&title=ミクマリ
&artist=テヅカ
&first=0
&des=LeeeH (fixed by nicecaulk)
&lv_6=14
&inote_6=(174.0){1},,
{4}5hx[2:1]/1hx[2:3],,,7,
8h[1:1],,,2,
3h[2:1],,
5h[2:1],,
7h[1:1],E5/B5,E7/B7,,
{2}1hx[2:3],B1,
2h[2:3],,
3h[1:2],,{8},,,
{16}6hx[4:4],,,,,,,,,,,,
,,,,4,,,5,,,4,,,5,,,54,,,,54,,,,,,
7-5[8:1]/4x,3x,2x,1x,{4}8x/7,
{8}14,2,{16}5p2[16:5],4,6,,
{8}5/7h[4:3],,,B2/E2,,,B7/E8,6,54,
{16}3,4,2,,6,5,7,,2,4,{4}3h[4:1],
8<3[2:1],{8},E4,E3,E2,E1,,
{16}1,,2,4,3,,{8}5,64,57,68,1,8/2h[2:1],,
E5,E6,E7,E8,{16}4,6,4,,7,,3,4,3h[4:1],,,,
{8}5,54,,{16}7,6,5,,43,,12,,7,8,7,,{8}1h[8:3],,,
C,,63,4<7[8:1],3,42,,{16}1,8,2,,{8}7h[4:1],,
1,24,3,{16}7,5,6,,{8}43,2,8-4-2[4:1]/1,7,86,5h[4:2],,E2/B2,,E8/B7,,
{16}3,4,2,,6,5,7,,81,,6x,4,5,3,
42,,6,5,6x,,7,,81,,2,4,3x,5,4,6,
75,,2x,1,2,,7x,8,7,,
{8}4x/3x,6x/5x,7x/8x,1xh[6:1]/2xh[6:1],,
1x/2x,7x/8x,6x/5x,4x/3x,1x/2x,8x/3x,
{4}7x-5-1[8:3]/4x-6-2[8:3],,,8b/3b,
{8}74,65,,43,1-6[8:1]/2,82,13,4-2-8[8:2],,7,5w1[8:1],,5b,,73,,
{16}8/1,,7,,5,,5,6,,6,4,,2,,3,,
{16}1,,2,,4,,4,3,,3,5,,7,,6,,
{16}2,,1,,2,,7,2,,2,6,,3,,5,,
{16}4,,7,,2,,7,3,,3,7,,1,,7,6,
{16}35,,6,,2,,7,1,7,8,7,,2,,5,,
{16}1,,7,,2,,8,3,,3,6,,4,,6,,
{16}3,,6,,4,,5,4,5,3,5,,2,,7,,
{16}1,,8,,2,,7,5,,7,4,,7,2,7,6,
{4}5-7-2[2:1]/4,3,2-8-5[2:1],3,
{4}4qq2[8:4],4,8qq3[1:1],8,
{2}1h[4:1],1-5-2[4:3],
{4}1-6[4:1],,,73,
{8}2x-7[8:1]/6x-3[8:1],26,,,84,51,62,{16}7,4,{8}4xq1[4:1]/8x^5[4:1],5x/1x,,,,{16}62,5,{12}3,4,4,{4}4-8[8:1],4/1-3[8:1],1/7-5[8:1],7/4<2[4:2],{8}4/Cf,,,,5h[4:1],,1-5[8:1],,A1f,8-4[8:1],,A8f,7-3[8:1],,A7f,6-2[8:1],,A6f,5h[4:1],,1,{16}8-4[8:1],1,8,,18,,3,,2,4,{8}3,65,7/4>1[8:1],3,46,7,8x/2x,{16}1,1,1w5b[8:1],,82,,{4}1b,Chf[4:1]/B7h[4:1]/B2h[4:1],{2},,
6h[1:1],C,3h[1:1],C,E8`B8`E1,B5`E3/E5`B2,
6<1[87#4:1],E2/B2,3-5-1[87#4:1],E8/B7,8-6-4[87#4:1],4-2-8[87#4:1],8<8[87#4:1],C,
{4}4h[8:1],4h[8:1]/5q1[4:1],4h[8:1],4h[8:1],
2/3h[8:1],3h[8:1]/2<7[4:1],3h[8:1],3h[8:1],
4/6h[8:1],6h[8:1]/4v1[4:1],6h[8:1],6h[8:1],
1/7h[8:1],7h[8:1]/1>4[4:1],7h[8:1],7h[8:1],
3h[2:1],5x,6h[2:1],4x,
{8}5h[4:1],8x,4h[4:1],1x,3h[4:1],1x,8x,8x<2[8:3],
{8},3,2,1,8,8h[4:1],1,1b,
{16},,1-5[8:1],8,2-4[8:1],,1b,,2b,,,,
{16}7x-3[8:1]/4x,3x,2x,1x,{8}8x/7x-1-5[8:2],1,72,3,4-7[8:1],3,42,{16}2,3,48,,7,5,6,,1>4[8:1],8,2,,71,,6,,5,6,7,,2,,73,,7,5,6,,81,,{24}2,3,4,{8}5,8/2-4[8:1],{16}7,7,2<7[8:1],,{8}5,5,,B7/E7,{16}4,5,3,,35,,5<1[8:2],4,6,,53,,,2h[16:3],,,3,,4,3,5x,2,6h[4:1],,4x,,5,,7x,1,8x,7x,1x,2x,
{16}8x^6[8:1],,7x,1,8x-3[8:1],,2x,2,8x,,4x,4x,7x,,1x/8x,,
2,5,3,6,4w8[8:1],,53,,A4/E5/E4,,,,6x-2[8:1]/1x,2x,3x,4x,5x-8[8:1]/6x,,4,,53,,2,,1<6[8:1],,2,,13,,4,,75,,3,4,2,,6,5,7<4[8:1],,8x,,7x/1x,,2,,53,,2,,81,,7,6,5/4<7[8:1],,3,,42,,1,,1-6[8:1],,5,5,1>4[8:1],,4,4,1,,5,6,7,8,1,,{8}82,2,5-2[8:1]/3,4,65,7,81,{16}3,4,2,,6,5,7,,2,4,3,,81,,7,5,6,3,{8}5x-1[8:1],5x,4x-8[8:1],4x,3x-7[8:1],3x,2x-6[8:1],2x,1xqq5[8:3],,,4x,4x,,Cf,,
{4}7<5[8:1]/5>3[8:1],5-8[8:1]/7,5/1-6[8:1],1-3<4[8:1]/2,1/7pp4[2:1],,3h[8:1],3h[8:1],6-2[8:1],5-1[8:1],4-8[8:1],3-7[8:1],2<5[2:1],3,2,1x,8-4[8:1],2-6[8:1]/8,2/5<8[8:1],5qq3[8:1],5pp1[2:1],4xh[8:1],3xh[8:1],2xh[8:1],1-5[8:1],{8}18,7v2[8:1],,7qq3[2:1],,7,,,,E3h[8:5],B3h[8:4],B6h[8:3],E7h[8:2],,B1/E1f/B2/E2/A2/B7/A7/B8/E8,,,,,,,,{4}7hx[4:3]/5x>3-1[4:1],,,2,63,4/5-8[8:1],4h[2:1]/5,,1w5[8:1],1,{16}73,,5x,5x,5x,,,,{8}74,6,53,2,81,7-4[8:1],2-5[8:1],7,2,7,6,72,81,7h[8:1],{16},,3x,4x,2x/5x,,6x,5x,4x/7x,,1x,8x,2x/7x,,{8}6x/5x,4x/3x,8bx/1bx,,7/5,24,81,8z4[8:1]/1s5[8:1],,8b/1b,,{1}5x<4[4:15]b/Ch[4:16],,,,
E
