&title=ノウナイディスコ (feat. IA AI)
&artist=r-906 & IA
&first=0.02
&des=不安定なダンサー
&lv_5=13+
&inote_5=(168)
{16},,,,,,,,,,6x,,6x,,6x,,
4,,3h[4:1]/5,,,,4,,3/5h[4:1],,,,4,,4,,
6,,7,,5,,5-2[8:1],,,,8,,7,,6,,
5,,6h[4:1]/4,,,,5,,6/4h[4:1],,,,5,,5,,
3-6[8:1],,3,,8,,7h[4:1],,,,4,,5,,4,,
3,,2h[4:1]/4,,,,3,,2/4h[4:1],,,,3,,3,,
2,,1,,4,,4-7[8:1],,,,1,,2,,3,,
6,,7h[4:1]/5,,,,6,,7/5h[4:1],,,,6,,6,,
5-2[8:1],,5,,7,,8h[4:1],,,,2,,1,,2,,
3-5[8:1]/8h[1:1],,,,,,,,3-5[8:1],,,,,,,,
3-5[8:1],,,,,,,,3-5[8:1],,6,,3,,7,,
3-1[8:1]/8,,3/8h[4:1],,,,,,6/3-1[8:1],,3/6h[4:1],,,,,,
3-1[8:1]/4,,3/4h[4:1],,,,,,3-1[8:1],,5,,,,6,,
6-4[8:1]/1h[1:1],,,,,,,,6-4[8:1],,,,,,,,
6-4[8:1],,,,,,,,6-4[8:1],,3,,6,,2,,
6-8[8:1]/1,,6/1h[4:1],,,,,,3/6-8[8:1],,6/3h[4:1],,,,,,
6-8[8:1]/5,,6/5h[4:1],,,,,,6-8[8:1],,4,,4,,3,,
1-4[8:1]/5,,15,,,,7,,7/1-4[8:1],,,,8,,7,,
1-4[8:1]/6,,7,,6,,5,,1-4[8:1],,5,,6,,7,,
8,,1/7h[4:1],,,,5,,6,,4h[4:1]/8,,,,1,,
2,,3/7-4[8:1],,,,1-4[8:1],,,,5,,,,7,,
8-5[8:1]/4,,84,,,,2,,2/8-5[8:1],,,,1,,2,,
8-5[8:1]/3,,2,,3,,4,,8-5[8:1],,4,,3,,2,,
37,,1xh[8:1]/5xh[8:1],,,,26,,4xh[8:1]/8xh[8:1],,,,26,,26,,
3x^8[8:1],,7x^4[8:1],,3x,,7x,,1-6b[8:1]*-4b[8:1],,,,B1f/E2/E1,,,,
26,,2/6h[4:1],,,,7-3[8:1],,,,7/4-1[8:1],,,,2-6[8:1]/4,,
,,2/5-8[8:1],,,,5/7,,,,78,,1,,2-4[8:1]/4-8[8:1],,
,,24,,,,7/5-1[8:1]*-7[8:1],,,,5,,,,28,,
37,,56,,78,,2/6^1[8:1],,,,3,,3,,4,,
57,,7/5^8[8:1],,,,1-5[8:1]/5,,,,1/4^1[8:1],,,,6/4-7[8:1],,
,,24,,,,8-4[8:1]/5-1[8:1],,,,5^8b[8:1]/8,,,,2h[4:1]/5,,
,,1,,4b/8b,,3,,25,,1b/8b,,6,,5b/7b,,
18,,24,,53,,4b/6b,,5-1b[8:1]/7,,8b,,8b,,,,
73,,7/3h[4:1],,,,2-6[8:1],,,,2/5-8[8:1],,,,7-3[8:1]/5,,
,,7/4-1[8:1],,,,4/2,,,,21,,8,,7/5-1[8:1],,
,,25,,3,,4-8[8:1]*-2[8:1],,,,4,,,,71,,
62,,43,,21,,7/3^8[8:1],,,,7,,6,,5,,
24,,2-5[8:1]/4-8[8:1],,,,2/4^1[8:1],,,,7,,6,,2h[4:1]/5,,
,,1,,38,,4/7-3-5[16:3],,,,2,,1,,,,
46,,46,,7,,1h[4:1]/8,,,,4-8[8:1],,4,,3,,
,,5-1[8:1],,5,,6h[4:1],,,,2,,3bpp6b[4:7]/7b,,,,
7,,,7,,,8,,,8,,,1,,,1,
,,2,,,2,,,1,,,8,,,7,,
7x,,,7,,,8,,,8,,,1<3pp6[4:3],,,,
E2h[4:3]/B2h[4:3]/E3h[4:3],,,,,,,,,,,,,,,,
2/4h[1:2],,,2,,,1,,,1,,,8,,,8,
,,7,,,7,,,8,,,1,,,2,,
2x,,,2,,,1,,,1,,,8>6qq3b[4:3],,,,
E8h[4:3]/B7h[4:3]/E7h[4:3],,,,,,,,,,,,,,,,
7/5xh[8:1],,,7,,,8/5xh[8:1],,,8,,,1/5x,,5x,1,
5x,,2/5x,,5x,2,5x,,1,,5x,8,5x,,7/5x,,
7x/5xh[8:1],,,7,,,8/5xh[8:1],,,8,,,1/5xpp4>5[4:3],,,,
6h[4:3],,,,,,,,,,,,,,,,
2/4xh[8:1],,,2,,,1/4xh[8:1],,,1,,,8/4x,,4x,8,
4x,,7/4x,,4x,7,4x,,8,,4x,1,4x,,2/4x,,
2xb/4xh[8:1],,,1,,,7xb/5xh[8:1],,,8,,,3xb/4xz8[8:3],,,,
,,,,,,,,2-5[8:1]/6-1[8:1],,,,26,,,,
4xh[256:1]/8xh[1:2],,,,E6,,,,E5,,,,E4,,,,
E5,,,,E6,,,,E5,,,,E4,,,,
1h[1:2],,,,E4,,,,E5,,,,E6,,,,
E5,,,,E4,,,,E5,,,,E6,,,,
5,,5h[4:1],,,,E7/B6/B7,,,,4h[4:1],,,,E3/B2/B3,,
,,16,,,,27,,,,38,,38,,1/4h[8:3],,
,,,,5b,,67,,18,,2b/4b,,57,,1b/8b,,
23,,46,,78,,15,,{32}1v4[8:1]*v6[8:1],2,3,4,5,6,7,8,{16}1x,,,,
{16}
37,,1x,8x,1b,,2x/7x-3[8:1],,,,7/4-1[8:1],,,,2-6[8:1]/4,,
,,2/5-8[8:1],,,,5/7,,,,78,,1,,2-4[8:1]/4-8[8:1],,
,,24,,,,7/5-1[8:1]*-7[8:1],,,,5,,,,28,,
3-8[8:1]/7,,6-4[8:1]/4,,3,,6,,,,1,,2,,1,,
35,,6,,58,,7,,46,,3,,14,,2-6[8:1],,
5h[8:1],,2V48[16:3],,7h[8:1],,2,,5h[8:1],,,,Cf/1b,,,,
2x/6x,,6/2h[4:1],,,,3-7[8:1],,,,3/1-4b[8:1],,,,6-2[8:1]/1,,
,,6/8-5b[8:1],,,,8/3,,,,21,,8,,7-5[8:1]/5v8[8:1],,
,,75,,,,2/4-2[8:1]*v1[8:1],,,,4,,,,8/3,,
7-4[8:1],,1<2[4:1],,7,,1,,,,1,,1,,28,,
7x-1[8:1]/3,,,5x,7x,,2-5[8:1]*-6[8:1],,,,2,,,,8^5[8:1]/4^1[8:1],,
,,8/4-8b[8:1],,,,4/8w4[8:1],,,,E1/E8/B8,,,,6h[4:1]/2h[4:1],,
,,{24},7x/3x,8x/4x,{16}5bh[4:1]/1b,,,,7,,8b/4b,,3,,4b/2b,,
51,,15,,26,,2bx/6bx,,{32}7-4b[8:1]/3v8b[8:1],4,5,6,7,8,1,2,{16}3b,,,,
6x/2x,,6/2,,1,,2x-6b[8:1]/6,,,,2/1^4b[8:1],,8,,7-3[8:1]b/1,,
,,7/8^5b[8:1],,1,,8/2,,,,21,,8,,7/5v8[8:1],,
,,25,,3,,4-2[8:1]*v1[8:1],,,,4,,,,8/3,,
7-4[8:1],,1<2[4:1],,7,,1,,,,8,,8,,17,,
2-8[8:1]/6,,,4x,2x,,7h[4:1],,,,6x-1[8:1],,4,,2h[4:1],,
,,3-8[8:1],,5,,7h[4:1],,,,5,,4xh[256:1]/8xh[256:1],,,,
4b/3b,,2h[4:1]/5,,,,4,,1-4[8:1]/5,,,,7,,7,,
6-1[8:1],,6,,5,,5h[4:1],,,,1,,48,,37,,
5/6,,7h[4:1]/4,,,,5,,8-5[8:1]/4,,,,2,,2,,
3-8[8:1],,7-4[8:1],,3,,7,,,,1,,1,,28,,
34,,2h[4:1]/5,,,,3,,1/4-7[8:1],,,,2,,2,,
3^8[8:1],,7-3[8:1],,3-5-7-1b[8:3],,7,,2h[8:1],,
