&title=Highscore
&artist=Panda Eyes
&first=3.04
&des=LeZi
&lv_5=13+
&inote_5=(110)
{1}7bq7[4:5]/3bq3[4:5],,
{1}4-1[8:7],5-8[8:7],4-2[8:7],
{4}5-7[8:7],,,4-8[8:1],
{1}4^1[8:7],5^8[8:7],4-8[8:7],5w1[2:1],
{8}1b-5[8:7]/5b,,2,3,4,5,6,7,8-4[8:7],,
{8}7,6,5,4,3,2,1p4[8:7],,
{16}2,2,3,3,4,,5,,6,,7,,8q5[8:7],,,,7,7,6,6,5,,4,,3,,2,,1b,,,,
{16},6,6,6,6h[4:1],,,,4h[4:1],,,,3h[16:8],,,,,
{16}1,1,1,1h[4:1],,,,8h[4:1],,,,7h[16:8],,,,,
{16}5,5,5,5h[4:1],,,,3h[4:1],,,,8h[16:8],,,,,
{16}1,1,1,1-5[16:1],,,,1b,,,,
{16}3b/7b,,,,5,4,3,2,1-3[16:1],8-6[16:1],1-5[16:1],8-4[16:1],1,8,1,8,2b,,,,
{16}4,5,6,7,8-6[16:1],1-5[16:1],8-4[16:1],1-3[16:1],8,1,8,1,7b,,,,
{16}8,1,2,3,4-2[16:1],5-7[16:1],4-8[16:1],5-1[16:1],4,5,4,5,3b,,,,
{16}1,8,7,6,5-7[16:1],4-8[16:1],5-1[16:1],4-2[16:1],5,4,5,4,6b,,,,
{16}1,7,5,3,1-3[16:1],7-5[16:1],1-5[16:1],7-3[16:1],1,7,1,7,8b,,,,
{16}8,2,4,6,8-4[16:1],2-6[16:1],8-6[16:1],2-4[16:1],8,2,8,2,1b,,,,
{16}7,3,6,2,15,15,15,15,1pp7[3:1]*pp7[3:1]/5pp3[3:1]*pp3[3:1]*pp3[3:1],15,15,15,1b/5b,,,,
{16},,,4V62[5:1]/8V26[5:1],
{2},
{16}4b/8b,,,,3,4-6[16:1],3,2-8[16:1],3,4,3,2,3-7[16:1],3,3,3,3b,,,,
{16}6,5^3[16:1],6,7^1[16:1],6,5,6,7,6q2[16:1]*p2[16:1],6,6,6,6b,,,,
{16}1,5-7[16:1],1,5-3[16:1],1,5,1,5,1-5[16:1],7,5,3,
{4}1b>5[4:1],5<1[4:1],1>5[4:1],5b,1b,
{16}7-5[16:1],8-4[16:1],8,7,7,8,,,1-5[16:1],2,3,4,1b/5b,,,,
{16}2-4[16:1],,1-5[32:1],2,2,1,,,8q4[16:1]/4q8[16:1],73,62,51,8b/4b,,,,
{16}4-1[16:1],,5-8[16:1],5,4,5,,,3,2,1,8,
{4}7<3[4:1]/3,3>7[4:1],7pp4[4:1],,
{16}1b^3[16:1],,,,1-5[16:1]/8,8,,6,6/1^3[16:1],,7,7,1,8,8,,
{16}8b^6[16:1]/4b,,,,8-4[16:1]/1,,2,2,8^6[16:1],3,3,,28,2,,,
{16}1b-6[8:1]/5b,,,,1-4[8:1]/2,2,,8,1-5[8:1]/8,,2h,,12,2,3,4,5b>1[4:1],,,,1pp4[8:3],,,,8h[8:3],,,,,,,,
{4}6b<2[16:13]/2h,3h[8:1],4h[8:1],3h[8:1],2<6[16:13],3h[8:1],4h[8:1],5h[8:1],6<2[16:13],5h[8:1],4h[8:1],3h[8:1],2<6[16:13],3h[8:1],4h[8:1],5h[8:1],
{4}6b>2[16:13],1h[8:1],8h[8:1],1h[8:1],2>6[16:13],1h[8:1],8h[8:1],7h[8:1],6>2[16:13],7h[8:1],8h[8:1],1h[8:1],2>6[4:3],1h[8:1],8h[8:1],7h[8:1],
{16}8b,7,6,5,7b,6,5,4,6b,5,4,5,6h[8:1],,7,6,5,4,5,4,3h[8:1],,1,2,3h[8:1],,5,4,3h[16:2],4,5,36,6,7,6,5,6,8,7,1,8,2,1,3,8,4,7h[8:1]/4h[8:1],,,3,8,4,7,6,4,5,3h[8:1],,
{32}2,3,2,3,
{64}2w6[16:1],1,8,7,6,5,4,3,2,,,,,,,,
{4}2b,
{16}5,4,3,2,
{4}1>5[4:1]/5<1[4:1],1-5[8:1]/5-1[8:1],,
{16}6,7,8,1,
{4}2V46[4:1]/6V82[4:1],2-6[8:1]/6-2[8:1],,
{16}5,4,3,2,
{4}1^4[8:1],1^6[8:1],1-4[8:1],1-6[8:1],1-4[8:1]*^4[8:1],1-6[8:1]*^6[8:1],
{8}1,5,4,3,21,78,56,34,1b/2b,,
{16}5,4,3,2,1-6[16:1],6-1[16:1],1-4[16:1],4>6[8:1],5,5,5,5,5b,,,,
{16}4,5,6,7,8-3[16:1],3-8[16:1],8-5[16:1],5<3[8:1],4,4,4,4,4b,,,,
{16}6,5,4,3,2-5[16:1],5-2[16:1],2-7[16:1],7>5[8:1],6-2[16:1],6,6,6,6b,,,,
{16}3,4,5,6,7-4[16:1],4-7[16:1],7-2[16:1],2<4[8:1],3-7[16:1],3,3,3,3b,,,,
{16}5,46,37,28,1-5[16:1],5-1[16:1],1V35[16:1],5V31[8:1],6-8[16:1],6,6,6,6b,,,,
{16}4,53,62,71,8-4[16:1],4-8[16:1],8V64[16:1],4V68[8:1],3-1[16:1],3,3,3,3b,,,,
{16}8,17,26,35,1b-5[16:1],5b-3[16:1],3b-7[16:1],7b-1[16:1],6b-2[16:1]*-2[16:1],6b,6b,6b,6b,,,,
{16}1bs5[2:1],2b/8b,3b/7b,4b/6b,5b,
E
