&title=Rainmaker
&artist=kamome sano
&first=0
&des=sherria
&lv_5=14
&inote_5=(180)
{4},,,,,C,,,,,E5,,,,,E1,,,,,7<3[3:1]/C,,,,,
{12}6h[6:1],5,,4h[6:1],5,,5h[6:1],4,,3h[6:1],4,,6h[6:1],5,,2h[6:1],3,,E8,E1,E2,E6,E5,E4,E8,E7,E6,E2,E3,E4,Ch[3:1],,,,,,
{16},,1q3[2:1],,,7,,,6q8[1:1],,,,,,,,,,,,4h[2:1],,
{8},,,,,6,5,4-1[2:1],,E6,,E7,,E8,,4h[2:1],
{16},5,,,6,,7-1-3[4:1],,,,5-7-1[4:1],,,,5,,,,3,,4,,2,,7,,5,,6,,3,,1,,2h,,3h[8:1],,4h[8:1],,5h[8:1],,8h[8:1],,1h[8:1],,2h[8:1],,3,,3,,3,,4,,4,,4>1[4:1],,5,,4,,,,8<5[4:1],,1,,2,,3,,4v7[4:1],,,,4/3,,,2,,,1,,87,,,12,,,23,,3h[4:1]/4,,,,
{32}4,5,62,,1,,,,7,,,,6,,,,2,,,,3,,,,6,,,,5,,,,3,,,,4,,,,6,,7,,8,,3,,2,,1,,7,,6,,5,,2,,3,,4,,5<7s3>1[1:1]/1,,,,,,,,,,,,,,,,,,,,,,,,A8,,,A7,,,A6,,,A5,,,A4,,,A3,,3x,,4x,,5x,,6x,,7x,,8xz4[16:11],,,,,,,,,,,,,,,,,,,,,,,,,,,,,,,,,,,,,
{16}1,2,3,4,5h[4:1],,6,,7h[4:1],,6,,,,,,2h[4:1],,3,,4h[4:1],,3,,,,,,8h[4:1],,7,,6h[4:1],,7,,,,,,1<6[4:1],,3,2,1,,3h[8:1],,,,3h[8:1],,,,6h[8:1],,,,6h[8:1],,4-2[8:1],,5-1[8:1],,4,,5,,8-4[8:1],,7-5[8:1],,8,,7,,4,,6,,3,,7,,2>5[4:1],,6,,7,,8,,1<6[4:1],,,,4,,3,,2,,1,,8>3[4:1],,,,7,,6,,5,,4,,3>7[4:1],,,,63,,5x,4,3h[8:1],,,,4h[8:1],,,,5h[8:1],,,,6h[8:1],,7,,8,,,,8q4[8:1],,,,
{64}E8,B7,B6,B5,E5,,,,
{16},,,,,,1p5[8:1],,,,
{64}E2,B2,B3,B4,E5,,,,
{16},,4h[8:1],,6h[8:1],,4-8[8:1],,6,,4,,,,1h[8:1],,7h[8:1],,1-5[8:1],,7,,1,,,,3h[8:1],,5h[8:1],,3-7[8:1],,5,,3,,,,8h[8:1],,7,6,5,,8,7,6,,1,8,7,,2,1,8,,2h[4:1],,3,4,5,6,7,,1,2h,
{12}3,4h,2,5h,7,6h,2,1h,3,8h,6,7h,8h[4:1],,,
{16},,7,,8,,7-3[8:1],,6,,7,,8,,,,3-1-7[4:1],,,,7-5-3-1-7[2:1],,5,,C,,1,,7-5-3[4:1],,,,C,,,,8bh[8:1],,,7h[16:1]/1h[16:1],,,3h[8:1],,7h[8:1],,,7/5h[16:1],,,8h[8:1],,,,,,1h[8:1]/6h[8:1],,,2h[16:1]/6h[16:1],,,5h[8:1],,4h[8:1],,,8h[16:1],,,8h[8:1]/4h[8:1],,,,,,3h[8:1]/7h[8:1],,,1h[16:1]/5h[16:1],,,6h[8:1],,3h[8:1],,,8h[16:1]/4h[16:1],,,2h[8:1]/6h[8:1],,,,,,4h[8:1]/8h[8:1],,,1h[16:1]/5h[16:1],,,7h[8:1],,3h[8:1],,,6h[16:1]/4h[16:1],,,5h[8:1]/3,,
{32}1<5[2:1],2,3,4,
{16},,1,,,3,,,3,,4>8[2:1],,,4,,,7,,7,,,,6>2[2:1],,,6,,,8,,8,,,1<5[2:1],,,1,,4,,,,4qq8<6[2:1],,,,,,,,,,,,1-5[8:1],,,,,,,,
{24}E1,,,,E3,,,,B7,,,,B3,,,,E6,,,,A4,,,,
{16}C/4x,3,2,1,8b,,1,8,1,,4,5,4,,7,6,7,,2,3,2,,5,6,1,,4,3,8,,7,6,5h[8:1],,4,3,2h[4:1],,,,8h[8:1],,2,3,4>7[2:1],,7,6,5,,7,6,5,,6,5,4,,8,4,8,4,5x,8,6h[8:1],,1,1,
{12}7,1,7,8,6,8,5,2,5,3,4,3,
{16}4,,5x,5,5,,3x,3,3,,6,7,5,,3,4,2,,7,8,6,,2,1,3,,6,5,4,,1,2,3>6[4:1],,,,3<6[4:1],,,,3,,A7,,A8,,A1,,A2,,A3,,A4/A6,,B4/B6,,C,,7,,3-1-7[4:1],,6,,5,,4,,3,,2,,1-7-5[4:1],,,,1x,2,3,4,5bx>3-8[4:1],,5x,6x,5x,,7h[8:1],,,,,,1-4<6[4:1],,1,8,1,,7h[8:1],,,,,,3>1-7[4:1],,3,5,3,,6h[8:1],,,,,,18,,72,36,5h[8:1]/4,,1,2,3h[8:1],,8,7,6h[8:1],,5,4,3h[8:1],,2,1,8h[8:1],,1,,7-5[8:1]/2,,6,,7/1-5[8:1],,3,,1/6-4[8:1],,7,,16,,2,,3q7[4:1],,,,7q3[4:1],,,,3<7[4:1],,,,7>3[4:1],,8h[8:1],,,,6,,6,,,,5h[4:1]/4qq2[8:1],,,,4,,5,,6,,7,,8<5[8:1],,,,81,,,,6/2-6[8:1],,,7,,,8-4[8:1],,1,,,2-4[8:1],,,8,,8,,,,5-1[8:1]/6,,,8,,,8-5[8:1],,3,,,2>5[8:1],,,6,,5x,6,7,8,
{32}1-5[8:1],,,,3,,4,,,,3,,4,,,,2-5[8:1],,,,8,,7,,,,,6-1[8:1],,,,,1,,,,,,,,3-8[8:1],,,,7,6,5,,,,,,7-3[8:1],,,,8,,,,2,3,4,,,,,,1,,,,6h[4:1]/8,,,,,,,,
{16}1,7,1,7,1,8,1,,6,4,6,4,6,5,6,,1b,,,,8,2,8,2,8,1,8,,3,5,3,5,3,4,3,,
{32}8b,,
,,,,,,A3`E4`E5`A5,,,,,,A2`B2`C`B6,,,,,,A1`E1`E8`A7,,,,A2`E3`E4`A4,,,,,,B1`C`B5`A5,,,,,,A8`E8`E7`A6,,,,C,,,,,,,,A7`E7`E6`A5,,,,,,B8`C`B4`A4,,,,,,A1`E2`E3`A3,,,,A6`E6`E5`A4,,,,,,B7`C`B3`A3,,,,,,A8`E1`E2`A2,,,,7b<5pp1>3[2:1],,
,,,,,,
{16},,,,,,,,,,7,6,5-8[8:1],,4,,2,,1,,8-6-4[4:1],,8,,4-7[4:1],,4,,2<8-4[4:1],,3,,2,,,,6-8-2[4:1],,5,,6/2-7[4:1],,3,,4>2-6[4:1],,4,,4,,,,8-6-2[4:1],,6x,,2-4[8:1],,4,,1,,8,,7,,6-4[8:1],,,,6/8-6[8:1],,1,,82,,3-7[4:1],,,,7<5-1[4:1],,7,,1>3[8:1],,1,,8<8[2:1],7<8[16:7],6>8[16:6],,8,7,6,5,4<2[2:1],3,2,1,8b/4b,,,,,,,,,,3,2,1-5[8:1]/7,,8,,1/3<7[4:1],,2,,7b>3[4:1]/3,,,,,,,,,,5,6,7-3[8:1]/1,,8,,7/5>1[4:1],,4,,1<8<7<6>5>4>3>2<1[3:2]/5b,,,,,,,,,,,,,,,,7,6,,,51,,,26,,3-6[16:1]/7-2[16:1],,,,,,,
{12}1,8,2,7,3,6,
{32}4>1[16:1]/5,,,,6,,,,7,,,,
{24}8-3-5[4:1],7,8,
{32}7,,,,6,,,,6-2[8:1],,,,,,,,6,,,,1-3-5[4:1],,,,
{24}1,,,5-2[8:1],6,7,
{16}8-4[8:1],,8,,8,,,,35,,35,,26,,7-4[8:1]/1,,8,,7/3-6[8:1],,2,,5-1[8:1]/3,,4,,5/3>8[8:1],,4,,3/6>3[8:1],,6,,6/1<6[8:1],,1,,1/3x,,4,,5,,6,,7,3,7,,2,6,2,3,4,5,2<6[4:1]/6b>2[4:1],,,,,,,,,,1x/5x,84,7-3[8:1]/3,,7,,7/5<1[4:1],,5,,5/1b>5[4:1],,,,,,,,,,62,73,8-4[8:1]/4,,8,,8/1,,1,,
{32}B1,B2,B3,B4,B5,B6,B7,B8,E1,E2,E3,E4,E5,E6,E7,E8,A1,A2,A3,A4,A5,A6,A7,A8,D1,D2,D3,D4,D5,D6,D7,D8,A1,A2,A3,A4,A5,A6,A7,A8,A1f,,,,,,,,
{16},,,,,,,,,,,,,,,,1,2,3,,1,2,3,,2,3,4,,2,3,4,,1,8,7,,1,8,7,,8,7,6,,8,7,6,5,41,,25,,36,,47,,
{16}1b-3-5[16:3],,,5-2[16:3],,,2-6[16:3],,8,,,8-4[16:2],,,8,,4,,,,6bv4[16:3],,,4-7[16:3],,,7-3[16:3],,1,,,1-5[16:2],,,1,,5,,,,
{48}8x,7,6,5,4,,,,,8,,,,,,,,,8,,,,,,1x,2,3,4,5,,,,,1,,,,,,,,,1,,,,,,1,28,37,46,5,,,,,,,,
{48}8b,7,6,5,4,,,,,7b,6,5,4,3,,,,,1b,,,,,,1b,2,3,4,5,,,,,2b,3,4,5,6,,,,,18,,,,,,1bx/8bx,2b/7b,3b/6b,5b/4b,
