&title=ネ 土 会 ェ 貝 南 犬 ☆ カ ゞ ん I よ ″ る ノ D A !!。
&artist=ぬぬぬぬぬぬぬぬぬぬぬぬぬぬぬぬぬぬぬぬぬぬぬぬぬぬぬぬぬぬぬぬぬぬぬぬぬぬぬぬぬぬぬぬぬぬぬぬぬぬぬぬぬぬぬぬぬぬぬぬぬぬぬぬぬぬぬぬぬぬ; ずんだもん
&first=0.195
&des=Xyanide
&lv_5=14
&inote_1=
&inote_5=(181)
{16},,,,,,,,,,,,,,,Ch[16:1]/B1/B7/B5/B3,
{1},,,,,,,,,
{4}4xb/5xb<4[2:7],,3,2,1h[4:1],,8h[4:1],,5,6,7h[8:1],8h[8:1],1h[4:1],,C,,
4>5[2:3]/5,,7x,,1x,,3hx[2:1],,{32}7bx,E7/E3,B6/B2,B5/B1,{16}E5/E1,,,,,,
{12}8b,8,8,6b,6,6,4b,4,4,2b,2,2,{8}8bxw4[8:1],1x/7x,8b,,
{16}1b/8b,,3,4,3,,1b/8b,,6,5,6,,1b<8-5[8:3]/8b>1-4[8:3],,,,{8},,,,Ch[4:1],,,,
{16}1b/7b,,6,5,6,,2b/8b,,3,4,3,,2b>5-8[8:3]/7b<4-1[8:3],,,,{8},,,,C,,,,
{8}3bx/4bx,3/4,2,5bx/6bx,5/6,7,4bx/3bx,2/4,1,5bx/6bx,5/7,8,1-5[8:1]/2bx-6bx[8:1],,1b/2b,,
{8}8<5[8:1]/4>1[8:1],,8b/4b,,8/4,2-5[8:1]/6-1[8:1],,2b/6b,,8/4,3/7,2/6,1v4[8:1]/5v8[8:1],,Cf,,
{8}7<3[4:1],,3-5-7[4:1],,1,,2,2-5[4:1],,5>8[8:3],5,6,7,7,6,6,
5h[8:7],B7,B6,B5,B4,B3,B2,1,2/6,3x/7x,4x>8[16:3]/8x<4[16:3],,8bv1[16:3]/4bv5[16:3],,,,
{8}2>6[4:1],,6-4-2[4:1],,8,,7,7-4[4:1],,4<1[8:3],4,3,2,2,3,3,
4h[8:6],2,1,8,7,6,5,4/5,3/6,2/7,1-5[8:1]/8-6[8:1],,1b-3[8:1]/8b-4[8:1],,1b/8b,,
{32}1b>7[8:5]/8b<2[8:5],2bx/7bx,3bx/6bx,4bx/5bx,{16},,,,,,,,,,,,,,
{8}1/8,1/8,1/8,1/8,{32}2,3,4,5,6,7,8,1,{4}2-7[8:1]/6-3[8:1],
{8}2b/6b,,,,,1x,1hx[4:1],,
B6/B5/C/E6B7/E7/E5/B4/B7,,B6/B5/C/E6B7/E7/E5/B4/B7,,B6/B5/C/E6B7/E7/E5/B4/B7,,
{4},,,,,6bx/7bx,2bx/3bx,4bx/5bx,1bx/8bx,
{4}7-4[8:1]/8,7/8-3[8:1],{16}7/8,,5,4,6,,3,,
{4}2-5[8:1]/1,2/1-6[8:1],{16}2/1,,4,5,3,,6,,
{8}7/8,,7/8,5/6,3-8[8:1]/4-7[8:1],,3/4,,1x/6x,3bx/7bx,2bx/6bx,3bx/8bx,1bx/5bx,,
E8/B8/B1/E2/E1/C/E5,,{1}3xh[4:15]/7xh[4:15],,,,
{4}2-5[8:1]/1,2/1-6[8:1],{16}2/1,,4,5,3,,6,,
{4}7-4[8:1]/8,7/8-3[8:1],{16}7/8,,5,4,6,,3,,
{8}2/1,,2/1,4/3,6-1[8:1]/5-2[8:1],,6/5,,8x/3x,6bx/2bx,7bx/3bx,6bx/1bx,8bx/4bx,,
E8/B8/B1/E2/E1/C/E5,,
{4}5x<4[4:10],,,,,,,,,,,C,1bx/2bx,5bx/6bx,8bx/7bx,4bx/3bx,
{8}1h[2:1]/8h[2:1],,,,,2/7,3/6,4/5,{4}E4/E6,E2/E8,E1/E5,E3/E7,
{8}6bx/5bx,6/5,7,4bx/3bx,4/3,2,5bx/6bx,7/5,8,4bx/3bx,4/2,1,8-4[8:1]/7bx-3bx[8:1],,8b/7b,,
{8}1>4[8:1]/5<8[8:1],,1b/5b,,1/5,7-4[8:1]/3-8[8:1],,7b/3b,,1/5,6/2,7/3,8v5[8:1]/4v1[8:1],,Cf,,
{8}2-5[8:1],,2/6-1[8:1],,6/2-4-8[4:1],,8,7-5-1[4:1],,1,2,3,4-6[8:1],4,7-3[8:1],7,
{16}2,,2,4,1,,7,,7,5,8,,
{8}8,7/3,2/6,1/5,4-7[8:1]/8-3[8:1],,8bv5[8:1]/4bv1[8:1],,8b/4b,,
{8}7-4[8:1],,7/3-8[8:1],,3/7-5-1[4:1],,1,2-4-8[4:1],,8,7,6,5-3[8:1],5,2-6[8:1],2,
{16}7,,7,5,8,,2,,2,4,1,,
{8}1,2/6,7/3,8/4,5-2[8:1]/1-6[8:1],,1bv4[8:1]/5bv8[8:1],,1b/5b,,
{8}2-6[8:1],,2/5-3[8:1],,5/1-7[8:1],,1/6,6-2[8:1],,6/3,3h[4:1],,
8h[8:1],6h[8:1],4h[8:1],2h[8:1],
8-4[8:1],,8/3-1[8:1],,5-7[8:1]/3,,5/8,1,2/8,3/7,4-8[8:1]/6<8[8:1],,
6b-2[8:1]/4b>2[8:1],,6b/4b,,
{8}7-3[8:1],,7/4-6[8:1],,4/8-2[8:1],,8/3,3-7[8:1],,3/6,6h[4:1],,
1h[8:1],3h[8:1],5h[8:1],7h[8:1],
1-5[8:1],,1/6-8[8:1],,4-2[8:1]/6,,4/1,8,7,6,5h[4:1]/1-5[8:1],,1b,,
4h[4:1]/8-4[8:1],,{4}8b>7b[4:3],,,,3h[2:1],,{8}5,2/6,1/7<4[8:1],,
{4}7b/1>4[8:1],1b/7-3[8:1],7b/1-5[8:1],1b/7<4[8:1],7b/1>4[8:1],1b/7w3[8:1],7b,C,
{8}8h[8:1],4,8h[8:1],4,8h[8:1],4,4h[8:1],8,
7h[8:1],3,7h[8:1],3,7h[8:1],3,3h[8:1],7,
6h[8:1],2,6h[8:1],2,6h[8:1],2,2h[8:1],6,
5h[8:1],1,5h[8:1],1,5h[8:1],1,1h[8:1],5,
4h[8:1],8,4h[8:1],8,4h[8:1],8,8h[8:1],4,
3h[8:1],7,3h[8:1],7,3h[8:1],7,7h[8:1],3,
2h[8:1],6,2h[8:1],6,2h[8:1],6,6h[8:1],2,
1,1/8,1/8,1/8,2v5[8:1]/7v4[8:1],,2b/7b,,
{8}8-6[8:1],8,E3,,8-5[8:1],8,E3,,8-6[8:1],8,E3,,8-5[8:1],8,E3,,
1-3[8:1],1,E7,,1-4[8:1],1,E7,,1-3[8:1],1,E7,,1-4[8:1],1,E7,,
8-6[8:1],8,E3,,8-5[8:1],8,E3,,1-3[8:1],1,E7,,1-4[8:1],1,E7,,
7/8,1/5b,,1/2,4b/8,,C,,E7/B6/B7,,E3/B3/B2,,E8/B8/B1/E2/E1/C/E5,,,,
{4},,,,,,,E7/B6/B2/E3/E1/B8/E5/B4/Cf,
{8}7-5[8:1]/8,,7/8-4[8:1],,8/1-3-7[4:1],,6,6-4-8[4:1],,1,2,3,
1<6[8:1]/4>1[8:1],,1b/4b,,{16}6/8,,5,4,5,,1/3,,4,5,4,,1/8,,
{8}7bx-3[8:1],2bx-6[8:1],7b,2b,,1bx>4[8:1]/5bx<8[8:1],,1b/5b,,
{8}2-4[8:1]/1,,2/1-5[8:1],,1/8-6-2[4:1],,3,3-5-1[4:1],,8,7,6,
8>3[8:1]/5<8[8:1],,8b/5b,,{16}3/1,,4,5,4,,8/6,,5/4,,5/4,,6,3,7,2,
{8}1/8,1/8,{32}7,6,5,4,3,2,1,8,{8}7-2[8:1]/3-6[8:1],,7b/3b,,
{8}8-5[8:1],,8-3[8:1]/2,,6/8<5[8:1],,8/2,1>4[8:1],,6/1,7-4[8:1],,
7,8-3[8:1],7-2[8:1],8,7-4[8:1],,3-6[8:1]/7,,5-7-1[4:1]/3,,1<5[4:1],3,5pp8[8:3],,
1v4[8:1],,1b,,3b/7b,,
{8}1-4[8:1],,1-6[8:1]/7,,3/1>4[8:1],,1/7,8<5[8:1],,3/8,2pp5[8:3],,6-1[8:1],,6b,,
{8}8h[8:1]/4h[8:1],,3/7,3/7,2/6,2/6,1/5,1/5,{1}C,
{32}8b/7b,1bx/6bx,2bx/5bx,3bx/4bx,{16},,,,,,,,,,,,,,
{4}2bx/E7/B6/E6,5bx/E2/B1/E1,4bx/E1/B8/E8,7bx/E3/B3/E4,
{32}1b/2b,8bx/3bx,7bx/4bx,6bx/5bx,{16},,,,,,,,,,,,,,
{4}7bx/E3/B3/E4,4bx/E8/B8/E1,5bx/E1/B1/E2,2bx/E7/B6/E6,
{8}7bx/8bx,7bx/8bx,6,4bx/5bx,4bx/5bx,3,2bx/1bx,2bx/1bx,3,4bx/5bx,4bx/5bx,6,
7/8,1,2,3,7b/4,6,5/2b,3,8b/4,6,5/1b,3,{4}4b/5b,5b/6b,6b/7b,
{32}7bx/6bx,8x/5x,1x/4x,2x/3x,,,,,
{4}4xpp1[2:1]/6xqq1[2:1],,,A1f,
2-6[8:1]/8-6[8:1],2-4[8:1]/8-4[8:1],2-6[8:1]/8-6[8:1],2/8,
3-5-8[2:1]/5-3-8[2:1],,,A8f,
7-3[8:1]/1-3[8:1],7-5[8:1]/1-5[8:1],7-3[8:1]/1-3[8:1],7/1,
{8}5b,5-1[8:1],,2b,2-6[8:1],,7b,7-3[8:1],,4b,4-8[8:1],,6bv1[8:1],,Cf,,
4b,4-8[8:1],,7b,7-3[8:1],,2b,2-6[8:1],,5b,5<1[4:1],,1b-5[8:1],,5bx,,
{8}4h[8:1]/6h[8:1],,4h[8:1]/6h[8:1],,3/7,3/7,,
4/8,3/7,3/7,2/6,1/5,4v7[8:1]/8v3[8:1],,,,
{24}2h[48:1]b,1h[48:1]b,2h[48:1]bx,1h[48:1]bx,2h[48:1]bx,1h[48:1]bx,
2h[48:1]bx,1h[48:1]bx,2h[48:1]bx,1h[48:1]bx,2h[48:1]bx,1h[48:1]bx,
3h[48:1]b,8h[48:1]b,3h[48:1]bx,8h[48:1]bx,3h[48:1]bx,8h[48:1]bx,
3h[48:1]bx,8h[48:1]bx,3h[48:1]bx,8h[48:1]bx,3h[48:1]bx,8h[48:1]bx,
{24}4h[48:1]b,7h[48:1]b,4h[48:1]bx,7h[48:1]bx,4h[48:1]bx,7h[48:1]bx,
4h[48:1]bx,7h[48:1]bx,4h[48:1]bx,7h[48:1]bx,4h[48:1]bx,7h[48:1]bx,
5h[48:1]b,6h[48:1]b,5h[48:1]bx,6h[48:1]bx,5h[48:1]bx,6h[48:1]bx,
{4}5bx>6[1:2],{1},,
{8}4h[4:1],,,4h[8:11],,,,,B5,B6,B7,,B2,,B6,,
5h[4:1],,,5h[8:11],,,,,E4,,E3,,E1,,E2,,
3h[4:1],,,3h[8:11],,,,,E5,,E6,,E1,,E8,,
6h[4:1],,,6h[8:5],,,,,Ch[4:3],,,,,,,,
{1}5xb/4xb>5[2:3],,4/5<4[2:3],,
{8}8,8,7,7,6,6,5,5,4,4,3,3,2,2,1,1,
2/6,2/6,3/7,3/7-3-7b[4:1],3bh[2:2]/7b,,,,8b,6b,1b,5b,2b,,
B1/B2/B3/B4/B5/B6/B7/B8/Cf,,
{8}5x-7[8:1]/4x,,5/4-8[8:1],,4/3-1-5[4:1],,6,6-8-4[4:1],,3,2,1,
8-3[8:1],3-7[8:1],4,5,{16}6x,8,5,1,4h[8:1],,2x,1,3,8,4h[8:1],,7,,
{8}5/6,4/7,3b/8b,2b-5b[8:1]/1b-4b[8:1],,2b-7b[8:1]/1b-6b[8:1],,2b/1b,,
{8}4x-2[8:1]/5x,,4/5-1[8:1],,5/6-8-4[4:1],,3,3-1-5[4:1],,6,7,8,
1-6[8:1],6-2[8:1],5,4,{16}3x,1,4,8,5h[8:1],,7x,8,6,1,5h[8:1],,2,,
{8}4/3,5/2,6b/1b,7b-4b[8:1]/8b-5b[8:1],,7b-2b[8:1]/8b-3b[8:1],,7b/8b,,
{8}5-2[8:1]/6,,5-8[8:1]/7,,5-2[8:1]/3,,5-8[8:1]/7,6,5-2[8:1]/3,,5/7,,8,6,4,2,
8-5[8:1],,8-3[8:1]/2,,8-5[8:1]/6,,8/2,1,7/8,1b/6b,2bv3[8:1]/5bv4[8:1],,
2bv7[8:1]/5bv8[8:1],,2b/5b,,
{8}4-7[8:1]/3,,4-1[8:1]/2,,4-7[8:1]/6,,4-1[8:1]/2,3,4-7[8:1]/6,,4/2,,1b,7b,
{32}1bx,2,3,4,7bx,6,5,4,{8}2,3/5,4/6,5/7,5/8,4/7,3/6,2h[8:5]/5,,,,,
{32}6b,7x/3x,8x/4x,1x/5x,{8},,,{32}8b/4b,3hx[96:1]/7hx[96:1],2hx[96:1]/6hx[96:1],1hx[96:1]/5hx[96:1],{8}8hx[96:1]/4xhx[96:1],,,,,
{16},,6,5,4b/7b,,,,,,3,4,{8}5b/2b,6/3,7/2,8/1,
{4}8bv3[8:1]/1bv6[8:1],8b<5[8:1]/1b>4[8:1],8bv3[8:1]/1bv6[8:1],8b<5[8:1]/1b>4[8:1],
8bv3[8:1]/1bv6[8:1],8b<5[8:1]/1b>4[8:1],8b/1b,B6/B7/E7/Cf/B3/B2/E3,
{8}8-6-3[4:1],,3<8[4:1],,2v5[8:1],,2,,8/4,3/7,2-8[8:1]/6-4[8:1],,
2-4[8:1]/6-8[8:1],,2/6,,
{8}1>4[8:1],8,7,6<1[8:1],5,4,3<6[8:1],2,1,8bx,8bx-3[8:1]*-2[8:1],,
8b-5[8:1]*-6[8:1],,8b,,
{8}1-3-6[4:1],,6>1[4:1],,7v4[8:1],,7,,1/5,6/2,7-1[8:1]/3-5[8:1],,
7-5[8:1]/3-1[8:1],,7/3,,
{16}8,,6,5,7,,3,4,2bx,,1bxw5[8:1],,{8},1b,,3/7,{32}2/8,3,4,5,6,7,8,1,
{4}2-7[8:1]/6-3[8:1],2b/6b,
{8}1h[4:1],5,7,2h[4:1],6,8,3h[4:1],,
8h[4:1],4,2,7h[4:1],3,1,6h[4:1],,
8h[4:1],4,6,1h[4:1],5,7,2h[4:1],6,8,
1bx,1bx-6[8:1]*-7[8:1],,1b-4[8:1]*-3[8:1],,1b,,
{8}8h[4:1],4,2,1,2/8,3/7,4/6,,1h[4:1],5,7,8,7/1,6/2,{24}3,5,3,5,3,5,
{32}4b,,,,1x,8,7,6,3b,,,,8x,7,6,5,2b,,,,7x,6,5,4,8bx,,,,2bx/6bx,,,,
8b,,,,2x,3,4,5,7b,,,,1x,2,3,4,6b,,,,8x,1,2,3,6x,5,4,3,2,1,8,7,
{4}2b-6b[8:1]/6b-2b[8:1],,4b-8b[8:1]/8b-4b[8:1],,,,C,,
{1}1x-5[8##0.25],
