&title=Lost Requiem
&artist=Ludicin
&first=0.08
&des_1=aiyimono33.vs
&des_2=aiyimono33.vs
&des_3=aiyimono33.vs
&des_4=aiyimono33.vs
&des_5=aiyimono33
&lv_5=15
&des_6=aiyimono33.vs
&des_7=aiyimono33.vs
&des=aiyimono33.vs
&clock_count=4
&inote_5=(200)
{1},,,,
{8}3h[1:1]/5,,,,,,,,B1/B2,,,,,,,,,,,,,,,,5h[1:1],,,,,,,,4h[1:1],,,,,,,,E3,,,,,,,,,,,,,,,,,,,,,,,,6h[1:1]/4,,,,,,,,B7/B8,,,,,,,,,,,,,,,,4h[1:1],,,,,,,,5h[1:1],,,,,,,,6h[1:1],,,,,,,,7h[1:1],,,,,,,,8,,6,,5,,4,,3/6h[1:1],,,,,,,,3h[1:1],,,,,,,,4h[1:1],,,,,,,,5h[1:1],,6,,7,,8,,Ch[1:1],,,,,,,,B7/B3,,1,,1,,2/8,,A7/A3,,5,,5,,4/6,,B3/A3/B7/A7,,A1/B1/B5/A5,,C,,,,
{8}3/7>5[1:1],,,,,,,,7,,8h[4:3],,,,,,7<1[1:1],,,,,,,,4h[1:1],,,,,,,,8b-4[4:5],,,,,,4,,3,,3,,2,,2,,5/1h[1:2],,,,,,,,5h[1:1],,,,,,,,
{32},2/6,3/7,4/8,
{8}1p8[8:11]/5p4[8:11],,,,,,,,,,,,,,,
{8}4>5[4:7]/8,,,,,,,,5,,,,,,,,4-8[4:3],,,,1,,,,1>4[4:2],,,,7,,6,,5h[4:1],,4h[4:1],,3h[4:1],,5>1b[2:1],,5h[2:1],,,,,,,,
{24}7b/8bV26[4:3],1/6,2/5,
{8}3/4,,,5,,6V48[4:3],,7h[4:3],,,,,,,,1V74[4:3]/7,,6,,5,,4V26[4:3],,5h[4:3],,,,,,,,8-4[2:1]/4,,3,,2,,1V75V31[4:3],,5h[4:3],,,,,,,,
{4}1-5[25#64:1]/5,,,,,,,1?-5b[8:1],
{8}Cf/7V53V17[4:7],,,,,,,,,,,,,,,,6V42V86[4:7]*V42V86[4:7],,,,,,,,,,,,,,,,5V31V75b[4:7]*V31V75b[4:7],,,,,,,,,,,,,,,,1V75[4:5]*V35b[4:5],,,,,,,,,,,,,,,,
{8}2>2[4:7]/Cf,,,,,,,,,,,,,,,,3<3[4:7]*<3[4:7],,,,2,,,,4,,4,,4,,,,4<4b[4:7]*<4b[4:7],,,,,,,,,,,,,,,,5w1b[2:1]*w1b[2:1],,,,,,,,2>5[2:1]/8<5[2:1],,,,,,,,
{8}4,4,5,3,3,5h[8:1],
{16}8,1,2,3,5,,5,,4,,6,,6,,4h[8:1],,1,8,7,6,1-5[8:1],,1,,8-6[8:1],,8,,3,,3h[8:1],,4,5,6,7,8-4[8:1],,8,,1-3[8:1],,1,,6,,6h[8:1],,5,4,3,2,
{8}1-4[8:1]/8,,1/8,7<4[8:1],,
{24}4,3,2,
{16}1b,,,,
{8}8-5[8:1]/1,,8/1,2>5[8:1],,
{24}5,6,7,
{16}8b,,,,
{8}2-5[8:1]/8,,2/8,6-1[8:1],,6/4,
{16}2,,2,,{12}8,6,7,1,3,2,7,5,6,2,4,3,
{16}1/8-4[8:1],,,,8/1,,2,,3/5h[4:1],,,,6,,7,,1-5[8:1]/8,,,,1/8,,7,,6/4h[4:1],,,,3,,2,,
{16}1/2,,3/4,,5/6,,7/8,,
{24}1,2,3,7,6,5,2,3,4,8,7,6,
{16}1bh[16:1],,5,,2h[8:1],,6,,3h[8:1],,7,,4h[8:1],,8,,
{8}5<8[8:1]/1,4,3,2>5[8:1],1,8,7,6,1>4[8:1]/5,8,7,6<1[8:1],5,4,3,2,
{16}1/5,,3,4,2h[8:1],,6,5,7h[8:1],,1,5,
{32}1,8,7,6,5,4,3,2,
{4}1bs5[4:1]/5b,,
{8}6-2b[16:1],
{16}8,8h[8:1],,,,,
{16}2bx/7bx<4[8:1],,,,7x/8x,,3x,3,,5x,5,,4x/6x,,3/7,,2,1,2,,8,1,8,,3/7,,6,5,5,4,6,,
{16}1x-5[8:1]/7x,,,,1x/8x,,7x,7,,5x,5,,4x,6,4,,3/5,,4,2,4x-8[8:1],,1-3[8:1],,4x-6[8:1],,1-6[8:1],,4x,,1x,,
{16}8bx>3[8:1],,,,7x/8x,,5x,5,,3x,3,,4x/5x,,6/5,,
{24}7x>2[8:1],6,5,
{16}4,,2x/7x,,3x,3,6x,5,5,4,6,,3,4,
{16}2xbq6[8:1],,,,1x/2x,,8x,8,,6x,6,,7x,8,6,1,5bx-3[8:1],,6,3,5x,,2,,
{16}2bx-6b[8:1],,
{24}4/2xh[8:1],5,6,
{16}7,,8x,8x,
{16}2bx>5[8:1],,,,2x/1x,,6x,6,,4x,4,,5x/3x,,6/2,,7,8,7,,1,8,1,,6/2,,3,4,4,5,3,,
{16}8x-4[8:1]/2x,,,,8x/1x,,2x,2,,4x,4,,5x,3,5,,6/4,,5,7,5x-1[8:1],,8-6[8:1],,5x-3[8:1],,8-3[8:1],,5x,,8x,,
{16}1bx<6[8:1],,,,2x/1x,,4x,4,,6x,6,,5x/4x,,3/4,,
{24}2x<7[8:1],3,4,
{16}5,,7x/2x,,6x,6,3x,4,4,5,3,,6,5,
{16}7bxp3[8:1],,,,8x/7x,,1x,1,,3x,3,,2x,1,3,8,4bx-6[8:1],,3,6,4x,,7,,
{16}7bx-3b[8:1],,
{24}5/7h[8:1],4,3,
{16}2,,1x,1x,
{16}5bx,,6,5,7x-5[8:1],,8,1,7x,,3x,3,4x,,1x,,
{16}1b/7b,,3,4,2x-4[8:1],,1,8,2x,,6x,6,5x,,8x,,
{32}2/1h[8:1],3,4,5,,,,,
{16}7/8,,7x,5,6,,3x/4,,2/6x,,7,,
{32}7x/8,6,5,4,,,,,1/2x,3,4,5,,,,,
{16}3b/7b,,1,8,2x>5[8:1],,2,,
{24}5x,6,7,
{16}8,,3x/7,,6,4,5x-8[8:1],,4,,3x/5,,1x,1x,
{16}7bx,,2,4,3x-8[8:1],,4,5,3x,,7x,7,1x-5[8:1],,6,4,1x,,,,3x/7x,,6,6h[8:1]/4x,,2,2h[8:1]/4x,,8b,,8,,
{16}1/7,,6,5,7x<4[8:1],,8,1,7x,,3,,
{32}1/5x,8,7,6,5,4,3,2,
{16}7b/1b,,5,5,2x-5[8:1],,1,8,2x,,6x,6,4x,,8x,,
{16}8b/2b,,6,5,7x-4[8:1],,8,1,7x,,3x,3,5x,,1x,,
{32}7/8h[8:1],6,5,4,,,,,
{16}2/1,,2x,4,3,,6x/5,,7/3x,,2,,
{32}2x/1,3,4,5,,,,,8/7x,6,5,4,,,,,
{16}6b/2b,,8,1,7x<4[8:1],,7,,
{24}4x,3,2,
{16}1,,6x/2,,3,5,4x-1[8:1],,5,,6x/4,,8x,8x,
{16}2bx,,7,5,6x-1[8:1],,5,4,6x,,2x,2,8x-4[8:1],,3,5,8x,,,,2x/6x,,3,3h[8:1]/5x,,7,7h[8:1]/5x,,1b,,1,,
{16}2x/8x,,,,
{32}3/8h[16:1],4,5b,,,,3/8h[16:1],4,5b,,,,3/8h[16:1],4,5b,,,,3/8h[16:1],4,5b,,,,
{16}2b/7bx<4[8:1],,8,,1,,2x<7[8:1],,3,,4,,5x>2[8:1],,6,,7,,8x,,1x/7x,,7,7,5,5,3,3,1,1,1,1,
{16}2bx/8bx,,3/4,,5/6,,7,8,7x-4[8:1],,4,,1x,,,,2/5x,,3x/6,,7x/4,,3,4,2x-7[8:1],,7,,4x,,,,1x/5b,,2/6x,,3x/7,,6,4,5x-2[8:1],,2x,,7x,,,,3x/8,,1x/4,,2/5x,,3,5,4x<7[8:1],,1x/2,,3x/4,,,,1/8,,2,,3x/5x,,7/8,1/6,2/5<4[4:1],,3,,5/8x-4b[8:1],,,,8b,,,,1h[8:1]/3h[8:1],,,2,4,,4/5,,6h[8:1]/8h[8:1],,,,
{16}7b/2b,,6/5,,4/3,,2,1,2x-5[8:1],,5,,8x,,,,7/4x,,6x/3,,2x/5,,6,5,7x-2[8:1],,2,,5x,,,,8x/4b,,7/3x,,6x/2,,3,5,4x-7[8:1],,7x,,2x,,,,6x/1,,8x/5,,7/4x,,6,4,5x>2[8:1],,8x/7,,6x/5,,,,8/1,,7,,6x/4x,,2/1,8/3,7/4>5[4:1],,6,,4/1x-5b[8:1],,,,1b,,,,8h[8:1]/6h[8:1],,,7,5,,5/4,,3h[8:1]/1h[8:1],,,,
{32}8b,7,6,5,,,7b,6,5,4,,,6x,,6,,1b,2,3,4,,,2b,3,4,5,,,3x,,3,,
{24}8,7,6,3,2,1,8,7,6,3,2,1,8,7,6,3,2,1,8,7,6,3,2,1,
{16}7<7[2:1]/8,6>7b[16:7],5>7[8:3],4>7b[16:5],A7,A6,A5,A4,7/A3,6/A2,5/A1,4/A8,3w7b[4:3]/A7,,,,A3f,,,,,,,,,,,,,,,,1>4b[2:1]/5<8b[2:1],,,,,,,,,,,,,,,,5V31b[2:1]/1V75b[2:1],,,,,,,,,,,,,,,,1s5b[2:1]/5,,,,,,,,,,,,
{16}8hb[4:1],,,,5s1b[2:1],,,,,,,,,,,,,,,,8<5b[2:1]/4>1b[2:1],,,,,,,,,,,,,,,,4V68b[2:1]/8V24b[2:1],,,,,,,,,,,,,,,,8z4b[2:1]/4,,,,,,,,,,,,
{16}1bh[4:1],,,,4z8b[2:1],,,,,,,,,,,,,,,,8qq1b[2:1]/4qq5b[2:1],,,,,,,,,,,,,,,,5p4b[2:1]/1p8b[2:1],,,,,,,,,,,,,,,,3-8b[4:1]/7-4b[4:1],,,,,,,,,,,,
{16}1<5[4:1],,,,1/5>1b[2:1],,,,,,,,,,,,,,,,1pp8b[2:1]/5pp4b[2:1],,,,,,,,,,,,,,,,4q5b[2:1]/8q1b[2:1],,,,,,,,,,,,,,,,8<4b[4:1]/4,,,3,,,2,,2h[4:1],,,,1,,,,
(190)
{24}1bxV73-5V37-1b[4:15]/8bxV26-4V62-8b[4:15],2bx/7bx,3bx/6bx,
{8}4bx/5bx,
{4},,,
(180){1},
(170),
(160),
{8}2/7,,2,3/4,,
{24}5,4,6,
{8}5,4/6,2/7,,7,5/6,,
{24}4,5,3,
{8}4,3/5,
{8}2/7,,2,3/4,,
{24}5,4,6,
{8}5,4/6,3/7,,7,5/6,,
{24}4,5,3,
{8}4,3/5,
{16}2/6,2,4,1,7,8,7,8,6,6,4,5,3,4,3,3,
{16}7b,7,5,8,2,1,2,1,3,3,5,4,6,5,6,6,4b,4,5,3,5,5,4,6,1,8,2,7,3,6,4,4,5b,5,3,3,5,5,3,3,7,8,6,1,5<1b[4:1],,5b,,5/1>1[4:3],,,,,,,,,,,,,,,,5b,5,7,7,3,3,5,5,1,4,1,4,2,8,2,6,4b,,3,5,3,,2,4,2,,1,3,1q5[8:1],,2/8,,5V31b[8:1]/1,6,7-3b[8:1],8,1b,,,,1,1,2,1,8,1,7,1,6<1[8:1],,,5,6,,4h[8:1],,2,4,2,4,3,4,3,4,2,4,5,4,2,4,5,4,2,4,3,4,2,4,3,4,
{48}3b,2x,1x,8x,7x,6x,
{16}5x,3,4,,2/5,,3,4,,3,4>5[2:1],,3,,2bqq5b[2:1],,,,,,,,,,,,,,,,
{16}3b,4,4,5,3,4,4,5,3,4,4,5,3,4,4,5,2x,3,3,4,2,3,3,4,2,3,3,4,2,3,3,4,2x,4,3,5,2,4,3,5,1x,7,6,7,3x,5,4,5,8x,3,2,3,1,5,1,5,
{24}1x,8,7,6,5,4,1x,8,7,6,5,4,
{16}1b,3,8,3,7,3,6,3,5,3,5,3,
{24}5,6,7,8,1,2,
{16}4,3,4,5,4,6,4,5,4,6,4,5,4,6,4,5,
{24}4x,3,2,1,8,7,6,5,4,3,2,1,8,7,6,5,4,3,
{16}1x,1,8,2,
{32}7x,6,5,4,3,2,1,8,7,6,5,4,3,2,1,8,
{16}7x,6,5,4,3,2,1,,6b,5,5,4,6,5,5,4,6,5,5,4,6,5,5,4,7x,6,6,5,7,6,6,5,7,6,6,5,7,6,6,5,7x,5,6,4,5,3,4,2,7,5,6,4,5,3,4,2,8x,1,7,2,6,3,5,4,7x,8,6,1,5,2,4,3,7x,8,7,8,6,6,1,8,2x,1,2,1,3,3,5,4,6x,5,6,5,7,7,1,8,3x,4,3,4,2,2,8,1,7x,8,5,4,7x,8,5,4,1x,2,5,4,1x,2,5,4,3x,4,2x,3,1x,2,8x,1,7x,8,6x,7,5x,6,4x,5,
{1}4xbw8[2:1],5xw1[2:1],3bxw7[2:1],6xw2[2:1],
{16}3/4-8[4:1],,,3,,,3,,2b,,,,1/8,,,,5-1[4:1]/6,,,6,,,6,,7b,,,,1/8,,,,1/8,,,2/7,,,3/6,,4b>2[16:1]/5b<7[16:1],,,,4/5,,,,1/8,,,2/7,,,3/6,,
{16}4bz8[8:1]/5bs1[8:1],4/5,4/5,4/5,C,,,,
(85)
{64}1x/2>6b[16:1],3<7[16:1],4<8b[16:1],5<1[16:1],,,2x/1,3,4,5,,,2x/1,3,4,5,
{32}2b,,,,2,3,2,3,2>5b[16:1],,,1/8-4[16:1],,,4-8b[16:1]/6,,2/8bh[32:3],,,,2b,,2b,,2-6[16:1],,,3/4V61b[32:3],,,2-4[16:1]/1,,4b,,,,1b,,2b,,8,,6,5/7,,3,2/4,,1b/8b,,1,8,,1,8,,2/7,,6,5,,6,5,,{64}4h[16:1]/7,8,1,2,3,,,,3,2,1,8,7/3,,,,
{32}2b/7b,,3,4,,3,4,,
{64}2/5h[16:1],1,8,7,
{32}6,,
{64}6,7,8,1,
{32}4/2,4,2xh[16:1],,4,2xh[16:1],,4,
{48}3,5,3,
{32}5h[16:1],,,4h[16:1]/6h[16:1],,,,5,5h[16:1],,,3h[16:1]/7h[16:1],,,5,5,5h[16:1],,,2h[16:1]/8h[16:1],,,,,
{32}3b/7b,,3,4,2>5[16:1],,8,1,8b-4b[16:1],,1,4,2,,6,,8V62[16:1]/4,,3,3,4,,2/5,,6/8b,,,1,1b,,
{64}1<5b[16:1]/2,8<4[16:1],7<3b[16:1],6>2[16:1],
{32}Cf,,,,,,1x,,
{64}1xs5b[16:1],8x,7x,6x,
{32},,B7/B3/A7f/A3f,,,,1x/5x,,,,
{48}4V61[16:1],3/5,2/6,
{32}1/7,,1b/7bv4b[16:1],,3,3,4,,2,2,7,,3,3/5,,2,2/6,,1x-5[64:3]/7x,,,,2-4[64:3]/6,,5,1,6<1b[16:1],,,2,5,,5x,,4/6,,,,3/8,8,2,2,4h[16:1],,,3h[16:1]/5h[16:1],,,4,4,4h[16:1],,,2h[16:1]/6h[16:1],,,,4,4h[16:1],,,1h[16:1]/7h[16:1],,,2h[16:1]/6h[16:1],,,3h[16:1]/5h[16:1],,,4w8[16:1]*w8[16:1],,4,,4bh[8:1],,,,,,,,2h[8:1]/6,,4,,8xw4[16:1]*w4[16:1],,8,,8xh[8:1],,,,,,,,2/6h[8:1],,8,,4z8[16:1]*z8[16:1],,3,,2h[8:1]/4h[8:1],,,,,,,,3h[8:1]/7,,1,,5s1[16:1]*s1[16:1],,6,,5h[8:1]/7h[8:1],,,,,,,,2/8,,3/7,,4/6-2[16:1]*-2[16:1],,2V84[8:1]*V84[8:1]/8,,4h[8:1]/6h[8:1],,,,,,,,3b,,3,,3-7[16:1]*-7[16:1]/5,,1/7V15[8:1]*V15[8:1],,5h[8:1]/3h[8:1],,,,,,,,6b,,6,,4/6,5,5,,3/4,,2,,3/4,,1,,3/4,,8,,3/4,,7,,5/6,,7/8,,1/2,,3/4,,5/6,,1/2,,B2hf[8:1]/B4hf[32:5]/B6hf[16:3]/B8hf[32:7]/Chf[4:1],,,,,,,,,,1,,,1,,,2/8,,
{48}2,3,4,
{32}7/5,7,5,5,7h[4:1],,8,,,8,,,
{96}8,1/6,2/5,3/4,,,
{32},,
{32}8b-5[16:1],,6,5,,5,4,,
{32}3x-7[16:1],,,2,,4,,6,
{32}3b-8[16:1],,6,5,,5,4,,3x,,,7,7,,
{48}5,4,5,
{32}4b-1[16:1],,2,1,,1,8,,
{32}7x-3[16:1],,,6,,8,,2,
{32}7b-4[16:1],,2,1,,1,8,,7x,,,3,3h[16:1],,5,5,
{32}8b>3[16:1],,6,5,,5,4,,
{32}3x-7[16:1],,,4,,5,,6,
{32}3b-8[16:1],,6,5,6,4,5,3,4x,,,7,7h[16:1],,1,1,
{32}4b<7[16:1],,2,1,,1,8,,
{32}7x-3[16:1],,,8,,1,,2,
{32}7b-4[16:1],,2,1,2,8,1,7,8x,,,2,2h[16:1],,4,2,
{32}Ch[8:1],,,,1h[8:1],,,,
{48}7,6,5,4,,,7/8,6,5,4,,,
{48}1/8p4[16:1],7,6,5,4,3,2/8,7,6,5,4,3,
{32}2/8,,,1,,,1,,
{48}1q5[16:1]/7,2,3,4,5,6,7/1,2,3,4,5,6,
{32}7/1,,,8,,,8,,
{48}1,2,3,4,5,6,1,2,3,4,5,6,2,3,4,5,6,7,2,3,4,5,6,7,
{32}3b<1[8:1],,,1,,,2,,3/8<2b[8:1],,,4,,,4,,8>6[8:1],,,7,,,6,,5b>7b[8:1]/8b,,,7,,,8,,1s5[8:1]/5,,,,
{64}6,5,4,3,2,1,8,7,
{32}1b/6b,,,6,,,6,,4h[16:1],,,3h[16:1]/5h[16:1],,,2h[16:1]/6h[16:1],,,1h[16:1]/7h[16:1],,,8h[16:1],,,,
(80)
{8}8z4b[16:1],,8b/4b,
{64}1,2,3,4,
{96}5,6,7,8,1,2,
{32}3b/7b,,,3b/7b,,,
{64}1,5,1,5,
{32}1bs5b[16:1],,,3b/7b,,,,,1b/5b,,,3b/7b,,,
{64}7,8,7,8,
{32}7b<4b[16:1],,,1b/5b,,,,,3b>8b[16:1]/7b,,,,,,,,3b/7b,,,1b/5b,,,,,
(75)
{8}1s5b[16:1],,1b/5b,
{64}8,7,6,5,
{96}4,3,2,1,8,7,
{32}6b/2b,,,6b/2b,,,
{64}8,4,8,4,
{32}8bz4b[16:1],,,6b/2b,,,,,8b/4b,,,6b/2b,,,,,
{32}2b>5b[16:1]/6b,,,8b/4b,,,,,6b<1b[16:1]/2b,,,,,,
{64}6,5,6,5,
{32}6b,,,8b/4b,,,,,
(150){1}2z6<5[1:8]*z6<5[1:8]/Cf,5,5,
(140){1}5,6,
(130){1}6,6,6,
(100)
{64}1b,2/8,3/7,4/6,
{16}5bqq1[8:9],,,,,,,,,,,,,,,,,,,,,,8<5[16:5],,,,,,,,,2qq5[8:5],,,,,,,,4<7[4:1],,,,,,,,4h[4:1],,,,8,,,,1,,,,2,,,,3q5[2:1]/7pp4[4:3],,,,,,,,,,,,,,,,3v8[4:3],,,,,,,,,,,,,,,,7v4[4:3],,,,,,,,,,,,,,,,1h[1:1],,,,5,,,,6,,,,7,,,,8bq1[2:1],,,,,,,,,,,,,,,,2>4[2:1]/7<5[2:1],,,,,,,,,,,,,,,,1-7[4:1],,,,7-3[4:1],,,,3-5[4:1],,,,5w1[8:3],,,,,,,,,,,,4w8[4:3]/5w1[4:3],,,,,,,,,,,,,,,,,,,,7h[4:1],,,,3qq5[4:3],,,,,,,,,,,,,,6,,6p4[4:3],,,,,,,,,,,,,,3,,3>5[2:1],,,4,,,4,4,4,,,4,,,4h[8:1],,
(200){16}1,2,5,6,2,3,6,7,3,4,7,8,5,,5h[8:1],,8,7,4,3,7,6,3,2,6,5,2,1,4,,4h[8:1],,7,8,5,6,8,1,6,7,1,2,7,8,5,,5h[8:1],,2,1,4,3,1,8,3,2,8,7,2,1,4/8,,1/5,,2/6,3,8,1,6,7,4,5,2,3,8,1,3,,3h[8:1],,7,6,1,8,3,2,5,4,7,6,1,8,6,,6,,6/4-6[8:1],,,,4,,2-4[8:1],,,,2,,8,,8,,5-3[8:1],,,,5,,7-5[8:1],,,,7,,1,,1,,2bh[4:1]/4V61[4:1],,,,4,,2>4b[8:1],,,,2,,1,,8,,5/7,,4,,5/3,,2,,1/7,6,5,4,8,7,6,5,1<6[8:1],,,,1,,5-2[8:1],,,,5,,7,,6,,3/5,,2,,1/7,,2/8,,1/3,,2/4,,3/5,,4/6,,3b/7b,,6,5,6h[8:1],,5,,5/7,,4/6,,3/5,,2/4,,1/5,,2,3,2h[8:1],,1,,1/2,,3/8,,4/7,,5/6,,1/8,,3,4,2,,2,4,3,,3/4,,4/5,,5/6,,1/8,,6,5,7,,7,5,6,,5/6,,4/5,,3/4,,2/7,,6,5,6,,6,7,6,,6,,2/7,,3,4,3,,3,2,3,,3,,2/7,,1,8,1,,1,,3/7,,6,5,6,,7,,1/8,,2,,3/4,,5,,2/6,,3,4,3,,2,,1/8,,7,,5/6,,4,,{16}3/7,8,1,2,3,4,5,6,7,8,1,2,3,4,5,6,
{24}3,2,1,8,7,6,5,4,3,2,1,8,7,6,5,4,3,2,1,8,7,6,5,4,
{24}7,8,1,2,3,4,5,6,7,8,1,2,3,4,5,6,7,8,1,2,3,4,5,6,
{32}1,8,7,6,5,4,3,2,1,8,7,6,5,4,3,2,1,8,7,6,5,4,3,2,1,8,7,6,5,4,3,2,
{16}1b/5b,,,6,5,,4/7,,6,5,6,,4/7,,1/8,,2/5,,,3,4,,2/5,,3,4,3,,2/5,,1/8,,4/7,,6,5,6,,4/7,,6,5,6,,4/7,,1/8,,2/5,,3,4,3,,2/5,,3,4,3,,2/5,,1/8,,
{16}7-4[16:1],,,3-7[16:1],,,5,,5,,6,4,6,,3/7,,1-5[16:1],,,6-1[16:1],,,4,,4,,3,5,3,,2/6,,7,8,7,2,1,2,7,8,6,2,1,3,
{32}8,7,6,5,4,3,2,1,
(210)
{4}8-4[4:1],,
{16}8-4b[8:1],1,2,3,4/8,,,,
(210)
{16}1,5,2,4,3h[8:1],,8,,7,3,6,4,5-1[8:1],,2-4[8:1],,5x,,2x,,8,,7,,5,6,4,5,
{16}3>8[16:3]/6,,4/5,,3x/8,7,6,5,7x,6,5,4,3/6,,2/4,,5/7,,1/8,,
{16}2>5[8:1]/6,,1/8-4[8:1],,2x/7,,8x,,3-8[8:1],,2/6,,3x/5<1[16:3],,4,,5x/1,2,3,4,2x,3,4,5,6/3,,5/7,,4/2,,1/8,,
{16}3/7-1[8:1],,6,5,7x/3-5[8:1],,2,,3x/7-3[8:1],,6,,3/7x,,1,,
{16}6/2-8[8:1],,3,4,2x/6-4[8:1],,7,,6x/2-6[8:1],,3,,6/2x,,8x,,4b/8,3,2,1,4b,3,2,1,5b,6,7b,8,5b,6,7b,8,
{16}2<7[8:1],5,3,4,2x,,6,,6>3[8:1],1,7,8,6x,,2,,1,8,1,7,2,7,3,6,3x>8[8:1],5,7x<4[8:1],5,3x,,7x,,1x,,3/7,,6,4,6,4,8x-4[8:1],,2/6,,8x,,3,,1/5,,2/4,,1/7,,3/4,,1/8,,2/6,,
{16}3/5,6,7,8,2-6[8:1],,2,,4,,4,,8-4[8:1],,8,,6,,6,,3-7[8:1],,3,,5,,5,,1-5[8:1],,1,,7,,7,,8<5[8:1]/4,,1,2,8x,,3x,,3>8[8:1]/7,,4,5,3x,,5x,,
{32}5b,4,3,2,1,8,7,6,
{16}5/1,,3x/7x,3/7,,1x-4[16:1]/5x-8[16:1],1h[8:1]/5h[8:1],,,,,,
{16}3b/7b-5[8:1],,1x,1,7-4[8:1],,2x,2,7-3[8:1],,3x,3,7,,4,,8x-4[8:1],,2x>5[8:1],,8x,,2,,
{24}1x,2,3,4,5,6,
{16}1b/7b,,,,
{16}6b/2b-4[8:1],,8x,8,2-5[8:1],,7x,7,2-6[8:1],,6x,6,2,,5,,1x-5[8:1],,7x<4[8:1],,1x,,7,,
{24}8x,7,6,5,4,3,
{16}8b/2b,,,,
{16}3b-8[8:1]/7b-4[8:1],,4/8,,3/7,,,,1-5[8:1]/5,,3/7,,1/5,,,,
{16}4x/8x,3,2,1,8x-4[8:1]/4x,7,6,5,4x/8x,,3,,2,1,3,8,
{16}4x,5,4,5,3x,4,3,4,1x>4[8:1],,8,,1x/7x,,,,
{16}5x,4,5,4,6x,5,6,5,8x<5[8:1],,1,,8x/2x,,1,,
{24}1x<6[8:1],2,3,4h[8:1],,,
{16}1p5[8:1],,5,,1v4[8:1],,4x,,1x,,3x,,2/6,,8,7,1,8,2,1,
{16}3x-1[8:1]/8x-4[8:1],,4,,3/8,,,,5,3,6,2,7-2[8:1],1,8,2,7x/3>8[8:1],,4x,,
{24}3x/7x,6,5,4,,,
{16}1,4,3,8,5,6,4,,2>5[8:1]/5,,7/8,,
{24}2x/5x,6,7,8,,,
{16}8,4,7,5,6,,2/7b,,1,5,2,4,3,,1b/8,,7,5,6,2,4,3,8,6,7,1,3,2,6,,4b/5b,,
{16}1,8,2,7,1,8,2,7,3,6,4,5,3,6,2,7,
{24}1/8,2,3,4,5,6,
{16}8bh[8:1],,,3bh[8:1]/B1f/B2,,,6bh[8:1]/B6/B7f,,,,4b,,
{16}8b-2[8:1],,2,,8-3[8:1],,3,,8-4[8:1],,4,,8-5[8:1],,5,,8,,4,,
{16}8,4,8,4,7,3,6,2,6,2,4,3,
{16}1b-7[8:1],,7,,1-6[8:1],,6,,1-5[8:1],,5,,1-4[8:1],,4,,1,,5,,1/7,,4/6,,2/8,,3/4,,5/6,,
{24}1/8,2/7,3/6,4/5,,,
{16}1,8,1-3[8:1],,3,,1-5[8:1],,5,,1>4[8:1],,8,,
{24}1b/8b,7,6,5,,,
{16}2-5[8:1]/7,,1,4,2x,,7-4[8:1],,8,5,7x,,
{16}3,5,1,6,4,8,2,4,3,7,5,6,2/7,,3/8,,
{32}3x/8,4,5,,7,,,,2x/7,3,4,,6,,,,1x/6,2,3,,5,,,,
{24}3x,4,3,
{16}6,5,7x-4[8:1],2,8,1,7,,3,,2x>5[8:1],6,1,8,2,,7,,8,6,8,5,8,4,8,3,8,2,8,1,8x,7,6,5,
{16}4<7[8:1]/3,,2,,
{24}8x/4x,1,2,3,,,5>2[8:1]/8,,,8,,,1x/5x,8,7,6,,,
{16}1,3,1,4,1,5,1,6,1,7,1,8,1x,2,3,4,
{16}6-1[8:1]/5,,6,5,6x,,2x,,3-8[8:1],,3,4,3x,,7x,,6<1[8:1],5,6,7,6x,,2x,,3>8[8:1],4,3,2,3x,,7x,,
{16}2,5,3,4,8,7,1,6,2,1,3,8,2,1,2,1,
{32}2b,3,4,5,6,7,8,1,
{16}2>4[16:1]/5,,,5,2q6[16:1],,5,2,7h[4:1],,,,
{16}1-5[8:1],,1,,8,,7-3[8:1],,7,,4>1[8:1],,4,,
{24}4x,5,6,7,,,
{16}3/5,,1/7,,3/5,,4-8[8:1],,2/6,,8/4,,7,6,
{16}5-1[8:1]/1,,5,,4,,3-7[8:1],,3,,8<5[8:1],,8,,
{24}8x,1,2,3,,,
{16}7/1,,5/3,,7/1,,8-4[8:1],,6/2,,4/8,,3,2,
{16}1<7[8:1]/5,,6,,1<6[8:1],,5,,1<5[8:1],,4,,1,,4hx[8:1],,
{16}1,4,1,4,2xq6[8:1],,8,,8x,,7x,,4,5,3,4,
{16}8>2[8:1]/2,,3,,8>3[8:1],,4,,8>4[8:1],,5,,8,,5hx[8:1],,
{16}8,5,8,5,7xp3[8:1],,1,,1x,,2x,,5,4,6,5,
{8}1/8-4[8:1],8,1-3[8:1],1,7-5[8:1],7,8-4[8:1],8,6,6,
{16}5-1[8:1],3,7,1,5,,3,,
{16}4b,5,3,4,
{8}8/1-5[8:1],1,8-6[8:1],8,2-4[8:1],2,1-5[8:1],1,3,3,
{16}4-8[8:1],6,2,8,4,,6,,5b,4,6,5,
{8}1/8-4[8:1],8,3-8[8:1],3,5-1[8:1],5,2-5[8:1],2,7-4[8:1],7,1-6[8:1],1,8-3[8:1],8,
{8}4-8[8:1],4,7-4[8:1]/4x,7,3-7[8:1]/7x,3,8-3[8:1]/3x,8,4z8b[4:1]/8x,4,
{16}4x/8z4[4:3],,,,6x,6,,2,2x,,5x,5,,3,3x,,
(220)
{16}1b,,2,,3/5,,6,,7<4[8:1],8,7,8,7,,1,,3/5,,2,,3/5,,6,,1/8,,4,5,3,4,2/6,,
{16}1/8,,7,,6/4,,3,,2>5[8:1],1,2,1,2,,8,,4/6,,7,,4/6,,3,,1/8,,3/5,,
{32}1,8,7,6,5,4,3,2,
(230)
{16}1b/5b,,6,5,6,,7/4,,3,4,3,,2/5,,4/6,,2h[8:1]/8,,8,,2h[8:1]/6,,6,,2h[8:1]/4,,4,,2/8,,2,,4/6,,3,4,3,,2/5,,6,5,6,,4/7,,3/5,,6h[8:1]/8,,8,,6h[8:1]/2,,2,,6h[8:1]/4,,4,,
{32}8,1,2,3,4,5,6,7,
(240)
{8}4b/8b,4,4,,4/6,4,4,,4/2,,4,,4/8,3/7,2/6,,
{8}1/5,5,5,,3/5,5,5,,
{16}5/7,,,5/1,,,3/5,,6,5,6,5,7,,7,,
{8}1,1,3,3,5,5,7,7,8/7,8/7,6/7,6/7,6/5,6/5,4/5,4/5,
{16}4b,3,2,1,5b,4,3,2,6b,5,4,3,7,6,5,4,
{16}3b/7b,,1,1,1,,3/7,,5b,5b,5b,,
{32}1/C,8,7,6,5,4,3,2,
{16}1b,,,4,3h[8:1],,5,,4>1[8:1]/6<1[8:1],,7,,4/6,,,,
{24}2-6[8:1]/8,7,6,
{16}5h[8:1],,2,,,4,3h[8:1],,5,,4/6,,3/7,,
{16}2b/8b,,,4,3h[8:1],,5,,4,6,4,6,3/7,,,,
{16}2,1,1,8,2h[4:1],,1,,
{16}1,8,7,6,
{16}5/1b-6b[8:1],,1b,,
{16}5b,,,4,3h[8:1],,5,,4/6,3,7,2,8h[4:1],,,,
{24}4,3/7,2/6,
{16}1/5,,3/7,,,,5,6h[8:1],,4,5h[8:1],,3,4h[16:1],
{16}2b,,4/7,,6,5,6,4,5,3,4,3,Ch[4:1]/B4f,,,,
{48}1b,2,,,,,,,,7b,6,,,,,,,,2b,3,4,,,,,,,8b,7,6,,,,,,,
{32}1,2,3,4,5,6,7,8,
{16}1b/Cf,,,5,6h[8:1],,4,,5<8[8:1]/3>8[8:1],,2,,5/3,,,,
{24}7-3[8:1]/1,2,3,
{16}4h[8:1],,7,,,5,6h[8:1],,4,,5/3,,6/2,,
{16}7b/1b,,,5,6h[8:1],,4,,5,3,5,3,6/2,,,,
{16}7,8,8,1,7h[4:1],,8,,
{16}8,1,2,3,
{16}4/8b-3b[8:1],,8b,,
{16}4b,,,5,6h[8:1],,4,,5/3,6,2,7,1h[4:1],,
{16},,
{24}5,2/6,3/7,
{16}4/8,,2/6,,6,,4,5,3,5,
{16}3,,2/6,,
{32}1b,2,3,,,,7b,6,5,,,,2b,3,4,,
{32}8b,7,6,,,,2b,3,4,,,,7b,8,1,2,
{16}5x,,5x,,6x/4x,,8,1,7,2,6,3,5,,1/8,,
{32}6b,5,4,,,,7b,6,5,,,,8b,7,6,,
{32}3b,4,5,,,,2b,3,4,,,,1b,2,3,,
{32}7b,6,5,,,,2b,3,4,,,,8b,7,6,,
{16}2x,1,3,8,4,7,5,6,
{32}2b,3,4,,,,7b,6,5,,,,1b,2,3,,
{16}7x,8,6,1,5,2,4,3,
{32}7b,6,5,,,,2b,3,4,,,,8b,7,6,,
{16}1x,,1x,,1,8,1,8,
{32}1b,2,3,4,,,2b,3,4,5,,,3b,4,5,6,
{16}8x,,8x,,8,1,8,1,
{32}8b,7,6,5,,,7b,6,5,4,,,6b,5,4,3,
{16}1x,8,2,7,1,8,2,7,
{32}3b,4,5,6,,,2b,3,4,5,,,1b,2,3,4,
{16}8x,1,7,2,8,1,7,2,
{32}6b,5,4,3,,,7b,6,5,4,,,8b,7,6,5,
{16}1,8,2,7,3,6,4,5,
{16}2x,1,2,1,2,1,2,1,3,8,3,8,3,8,3,8,4,7,4,7,4,7,4,7,5-1[8:1],6,5,6,5b,,,,
{16}7x,8,7,8,7,8,7,8,6,1,6,1,6,1,6,1,5,2,5,2,5,2,5,2,4-8[8:1],3,4,3,4b,,,,
{16}1hx[32:1],7,1,7,1,7,5hx[32:1],7,5,7,5,7,1hx[32:1],,2/8,,3hx[32:1],1,3,1,3,1,3hx[32:1],5,3,5,3,5,
{32}3x,2,1,8,7,6,5,4,
{16}3x/7x,,,5x,4,6,5,1x,2,8,1,7x,5,6,4,5x,
{16}2b/8b,,3x,3,3x,,4b/6b,,7x,7,7x,,2bv4[16:3]`8bv6b[16:3],,
{32}2/8,3/7,4/6,5bxV31[4:71]*V71[4:71],
{4}Cf,
E
