&title=悲しみの向こうへ
&artist=いとうかなこ
&first=-1.2
&des=西園寺世界 vs 桂言葉
&des_5=西園寺世界 vs 桂言葉
&lv_5=13+
&inote_5=(40){4},,,E4,
{32},,,,,,,B8,{128},B1,{4},{16},{64},{32}E4,,,,,{4}4h[256:203],
{12},,,,,,,,,,,,7-3[24:1],
6-3[24:1],,,,,3-7[24:1],2-7[24:1],,,,,7-4[24:1],
8-4[24:1],,,,,3-8[24:1],4-8[24:1],,,,,1-5[24:1],
8-5[24:1],,,,,5-1[24:1],4-1[24:1],,,,,8-4[24:1],
7-4[24:1],{6}6-1[24:1]*-2[24:1],{12},,8-5[24:1],2-5[24:1],{3}1-6[24:1]*-4[24:1],
{12}5-1[24:1],1-4[24:1],{6}4w8[24:1],{12},,1-5[24:1],5-8[24:1],{3}8w4[24:1],
{12}3-7[24:1],7-2[24:1],{6}2w6[24:1],{12},,7-3[24:1],3-6[24:1],{3}6w2b[24:1],
{12}8-5[24:1],5w1[24:1],{6}2-5[24:1],{12},,4-1[24:1],1w5[24:1],{3}6-1[24:1],
{12}7-4[24:1],4w8[24:1],{6}1-4[24:1]*-6[24:1],{12},,3-8[24:1],8w4[24:1],{3}5-8[24:1]*-2[24:1],
{12}7-4[24:1],4-2[24:1]/5-2[24:1],{6}3w7[24:1],{12},,1-6[24:1]*-7[24:1],7-4[24:1]*-5[24:1],{3}5w1[24:1],
{12}3-5[24:1],5-1[24:1]*-7[24:1],{6}1w5[24:1],{12},,5-1[24:1]/6-8[24:1],2-4[24:1]/1-5[24:1],{3}5w1b[24:1],
{12}2-5[24:1]/6-3[24:1],4-8[24:1],{6}8w4[24:1],{12},,3-6[24:1]/7-4[24:1],5-1[24:1],{3}1w5[24:1],
{12}2-6[24:1]/3-6[24:1],4-8[24:1],{6}5w1[24:1],{12},,7-3[24:1]/6-3[24:1],5-1[24:1],{3}4w8[24:1],
{12}1-7[24:1],1-6[24:1],{6}1-5[24:1],{12},,8-2[24:1],8-3[24:1]*-4[24:1],{3}8-5[24:1],
{12}4-6[24:1],4-8[24:1]*-1[24:1],{6}4-7[24:1]*-2[24:1],{24},,,,5-3[32:1],5-7[32:1],5-2[32:1],5-8[32:1],{3}5w1b[24:1],
{24}7-3[24:1],3-8[24:1],8-4[24:1],4w8[24:1],,,{4}7b,{24}3-7[24:1],7-4[24:1],4-8[24:1],8w4[24:1],,,{4}3b,
{24}3-7[24:1],7-4[24:1],4-1[24:1],1w5[24:1],,,{4}3b,{24}7-3[24:1],3-8[24:1],8-5[24:1],5w1[24:1],,,{4}7b,
{24}8-6[24:1],6-4[24:1],4-2[24:1],2-8[24:1],{12}8w4[24:1],8b,{24},,,,1-3[24:1],3-5[24:1],5-7[24:1],7-1[24:1],{12}1w5[24:1],1b,{24},,,,7-4[24:1],
4-8[24:1],1-5[24:1]/8-5[24:1],5w1[24:1],{12}2-6[24:1],7b,{24},,,,2-5[24:1],5-1[24:1],8-4[24:1]/1-4[24:1],4w8[24:1],{12}7w3b[24:1],2b,,,{4}5-8-4[4:1],
4-1-3[4:1],3-8-4[4:1],4-7-5[4:1],
5-1-6[4:1],6-8-5[4:1],5-1-4[4:1],4-2-5[4:1],
{12}5w1[12:1],1w5[12:1],,,,,4w8[12:1],8w4[12:1],,,,,5w1[12:1],
8w4[12:1],,,,,4w8[12:1],1w5[12:1],,,,,{2}6w2[6:1]/5w1[6:1],
3w7[6:1]/4w8[6:1],
,,,,,,
E
