&title=不孤独摇滚
&artist=ray
&first=0.06999999
&lv_5=1
&des_5=九月飞
&inote_5=
(165){4},,,,{1}Cf`E1`B8`B1`B5`E5`B4`B7`B6`B3`B2,
{16}3,4,3,4,,,{8}6h[8:1]/4h[8:1],,5h[8:1]/3h[8:1],,4h[8:1],
5,4h[8:1],6,4h[8:1],7,4h[8:1],8,4h[8:1],
8,7/2-5[8:1],,2/7-3[8:1],,7/1-5[8:1],,1/7,
8h[8:1],4,6/3h[8:1],5,4/6h[8:1],3,{16}2-5[8:1],1,2,1,
{4}2b,6h[8:1]/4h[8:1],5h[8:1]/3h[8:1],4h[8:1]/2h[8:1],
{8}5/1h[8:1],6,2/7h[8:1],3,8/4h[8:1],7,3/6,2,
2/6,3/5,4,2,3/5,6,7/4,8,
{32}1b,2,3,4,5,6,7,8,{4}1h[16:3],{16}8,2h,6,4h,8,2h,6,4h,
{8}8b,2,4/2>5[8:5],4,5,5x,6,6x,
7,7x,8,1/8x,8,1/5,{4}3/7-4<8-5[4:7],
{8}1,1,{4}1xh[8:1],{8}2,2,{4}2xh[8:1],
{8}3,3,{4}3xh[8:1],{8}4,4,3xh[8:1],6x,
7/1-5[8:1],2,3/1,2,6/1-5[8:1],2,1/3,2,
7/1-6[8:1],8,3/1-5[8:1],2,{4}5/1b,{8}6/2,7,
8/2,1h[8:1],{16},,1,8,{8}1,{16}2,7,{8}2,{16}6,3,
{32}8b,7,6,5,4,3,2,1,{4}8h[8:1],{16}1h,7,3h,5,1h,7,3h,5,
{4}1b-5[8:1],{8}1,8,2/8-3[8:1],1,6/8-5[8:1],7,
{4}1/8>3[8:1],{8}8/7,6,5-7[8:1]/4-2[8:1],3/6,{4}5/4,
{8}1/8b-4[8:1],7,6/8,7,2/8b-4[8:1],7,6/8,7,
2/8b-3[8:1],1,6/8-4[8:1],7,{4}4/8b,6/2,
{6}1x<6[8:1],{12}2,1x,{24},{8}3,{6}4x>1[8:1],{12}5,4x,{24},{8}6,
{6}7x<4[8:1],{12}8,7x,{24},{8}1,{2}2h[8:3],
{16}2,1,2,1,3,8,3,8,4,7,4,7,3,4,3,4,
2>8[4:1],5,2,5,,,,,{4}5xh[8:1],{16}3,3,5,5,
{8}4,5,4,5,3x,5,4,5,
2x,5,4,5,3x,5,4,5,
1x,5,4,5,3x,5,4,5,
8x,5,4,5,3x,5,4,{16}5x,4x,
{8}4x,5,6/4,6,6/3x,3,7/3,7,
1/7x,1,8/1,8,8/2x,2,7/2,7,
7x/3,4,5/7,6,5/2,3,4/8,7,
6/3,2,7/1,6,{16}3,3,5,5,4,4,6,6,
{8}1-5[8:1],1,7,7,{16}8/1-5[8:1],,,2,{8}1,7,
4/6-3[8:1],5,{4}6/1<1[8:3],1/Cf,{8}8,7,
3/6-8[8:1],4,6,5,{6}7/4-1[8:1],{12}5h[24:1],4,{6}6h[24:1],
2/8v5[8:1],{12}1h[24:1],8,{6}3h[24:1],{24}6/1<6[8:1],,,2,,,{4}1/B4/E4/B3,
{8}2v5[8:1],1,8/2,7,{16}4/8<5[8:1],,,1h[16:1],{8}8-3[8:1],1,
{6}8,{12}7,1/7<4[8:1],{24},{8}2,7/3<6[8:1],2,{4}3/6,
{16}6x,5,6,5,7,4,7,4,5,4,5,4,6,3,6,3,
{8}8b-3[8:1],3>5[2:1],8,4h[2:1],,,,,6-8[8:1],
7,6/2-4[8:1],1,2/6,7,{16}1b,8,{8}2,
8/2-4[8:1],4-1[8:1],2/8-5[8:1],1,8,2,{16}8b,1,{8}7,
3/6-8[8:1],8-2[8:1],6/3-5[8:1],4,3,6,{16}3b,5,{8}1,
{4}8h[4:1]/2q5>1[8:5],2,{32},,,,,,,,,,,,,,,,8b,
7,6,5,4,3,2,1,{4}8h[4:1],{16}1-5[8:1],,,8,{8}1,7,
{16}3h[8:1]/4-1[8:1],,,3,{8}4q6<8[8:3],5,{2}4,
{32}1x,2x,3x,4x,5x,6x,7x,8x,{48}1x,2x,3x,4x,5x,6x,7x,8x,1x,2x,3x,4x,{16}5x/Cf,,,5,{8}2,6,
4/7,6,5V71V35[8:3]/4V28-6-4[8:3],3/6,{2}5/4,
{8}1-3v2-4-1[4:7],8,{4}1x/8xh[8:1],{8},7,{4}7xh[8:1],
{8},6,{4}6xh[8:1],{8}5x,5x,6xV82-7-1-6[1:2],6x,
{4}6xh[8:1],{8}3,3xh[4:1],,,{4}4xh[8:1],
{8}4,5xh[8:1],,5x,4,3x,{4}3x,
{8}2-4v3-1v2b[4:7],2x,1,8x,{4}8xh[8:1],8xh[8:1],
{8}7,7,{4}7xh[8:1],{8}6,6,{4}6xh[8:1],
{8}5v6-8-5b[8:7],5,4x,4,{4}4xh[8:1],{8}3,3,
{4}3xh[8:1],{8}2x,6x,{16}1h,7,3h,5,1h,7,3h,5,
{8}1b-5[8:1],1,7,7,{16}3/8-4[8:1],,,1,{8}8,2,
{16}6/2-6[8:1],,,8,{8}2,7,8-2[8:1]/3-7[8:1],7/2,{4}8x/3x,
{8}1xv4[8:1],1,8,8,{16}2/7-4[8:1],,,1,{8}7,8,
{16}6/1-6<4[8:5],,,8x,{8}1x,5,{2}5h[8:3],
{6}6x<1[8:1],{12}5,6x/4x,{24},{8}4x,{6}2x>5[8:1],{12}1,2x/8x,{24},{8}8x,
{6}7x<4[8:1],{12}8,7x/1x,{24},{8}1x,{2}7h[4:1],
{16}1bx/7bh,2,3,4,5bx/8bh,4,3,2,1bx/7bh,6,5,4,3bx/1bh,4,5,6,
{4}2bh[8:1]/7bxh[8:1],{8}6/2,8bh[8:3]/4bh[8:3],,,,,2x/8x,
3,7/4x,3,2x/6x,3,6x/4,7,
3/8x,7,6x/2,5,4x/3x,2,7/1x,2,
3x/8x,7,2/6x,7,4/8x,3,7/2x,3,
5/3x,5,6/8x,6,5x/3,5,6x/8,6,
8/6x,6,5/6x,6,6x/4x,4,4/5x,4,
4/6x,6,6x/3,3,3x/7,7,2/7x,2,
{16}1,8,2,7,1,8,2,7,1,8,2,7,1,8,2,7,
1b,8,3,6,1b,8,3,6,1b,8,3,6,{64}1bw5b[8:5],1?s5[64:39],{32}1?z5[32:19],{16}8,,6,
{4}1b,{16},,,,,,,,8,8,8,8,
{4}8b-4[8:1],{8}3/8x,2,{16}1/8-4[8:1],,,6,{8}8/6x,2,
5/3-6[8:1],2,{4}3/8-2-7-5b[8:3],8b/Cf,{8}1,2,
7/3v8[8:1],5,3/4,4,{6}2/5-8[8:1],{12}4h[24:1],5,{6}3h[24:1],
7/1v4[8:1],{12}8h[24:1],1,{6}6h[24:1],{24}3/8>3[8:1],,,7,,,{4}8/B5/E6/B6,
{8}2/7v4[8:1],1,8/7,2,{16}5/1-5[8:1],,,8h[16:1],{8}1-6[8:1],8,
{6}1,{12}2,8/2>6[8:1],{24},{8}7,2/6>3[8:1],B7/C/B2,{4}8,
{16}6,5,6,4,5,3,4,2,4,3,5,4,6,5,7,6,
8xh[8:1]/1xh[8:1],,,2/7,6/3,5/4,{8}Ch[2:1]`E1`B8`B7`B6`B5`E5`B4`B3`B2`B1,,,,,4/2-5[8:1],
7/5-1[8:1],8,6,4-7[8:1],2/7<4[8:1],8,2,
3-6[8:1],1/6v3[8:1],6,7,8-5[8:1],7/1v4[8:1],8,1,
8-5[8:1],7/5q1[8:1],2,4,2<7[8:1],7-3[8:1],3<6[8:1],6,
8-4[8:1],1-3[8:1],{4}8p6[8:3]/3qq6[8:3],,,{48}7bx/6bx/B7f,
8bx/B8,1bx/B1,2bx/B2,3bx/B3,4bx/B4,{8}5bxh[4:1]/B5,{16},,,,8-4[8:1],,,5,{8}8,2,
{16}6h[8:1]/1-4[8:1],,,7,{8}1-7p5[8:3],8,{2}1,
{16}4,5,3,6,4,5,3,6,4b,5,2,7,4b,5,2,7,
{32}1b/8b,2x,3x,4x,,,8b/7b,6x,5x,4x,,,1b/2b,3x,4x,5x,{96},,,,,,{48}7b/8b,6x/1x,5x/2x,{8}4xh[4:1]/3xh[4:1],,,3,
4,5,6h[8:3],,,4,5h[8:3],
,,3,4h[8:3],E3,E2,E1,6,
{4}1h[4:1],{8}8,2h[8:3],,,7,6,
5,{16}3,3,{8}3,4,{16}5,5,3,3,{8}3p5[16:3],{16}6,6,
{1}3>5[4:3],
Ch[1:1],
4h[1:1],
{8}8s4[8:7],{16}2,2,2,2,{8}5,{16}6,6,2,2,8w4b[8:1],1,7,2,
{1}8b,
E
