&title=Summoning 101
&artist=Mili
&first=0.315
&des=Kurage
&lv_5=13
&inote_5=(186)
{8}
6/5-1[12:1],,,7-3[8:1],,,8>4[8:4],,,,5,,6h[8:2],,5,6,
3/7-3[12:1],,,4-1[8:1],,,8h[8:3],,,1,7,7,2,2,15,,
34,2,6,57,8,2,1<5[8:4]/2,,,,4,,3h[8:2],,4,3,
2b/6b,,5,5,4,4,45,45,
27,,{16}3,4,3,,6,5,6,,4,5,4,,
{8}
3-1[8:1]/6,,4,,8-4[8:1],,6,,
3,3,24,,6,6,75,,
6-8[8:1]/3,,5,,1-5[8:1],,3,,
4V68[8:2]/2,,3,3,,1,18,,
2pp5[8:4]/6,,,7,7,,8,,
8p3[8:2],,1,,1p5[8:1]*q5[8:1],,,,
6>3[8:2],,3>8[8:2],,8<5[8:2],,5qq4[16:5]*pp6[16:5],,
,,,,5,5,4,4,
3/6h[8:6],,,,,,5,,
5,,,,4,,,,
3h[4:1],,4h[4:1],,5h[4:2],,,,
4,,,,2h[256:1]/7h[256:1],,,,
5h[8:2]/4,,{16}3,4,3,4,{8}2,5/1-5[8:1],,6,
6V47[8:2],,3,3-8[8:1]*-1[8:1],,,,7,
62,2-6[8:1],,8p3[32:5]*<4[32:5],,,,2qq5[8:3],
42,,,6h[8:2],,{16}4,5,4,5,4,5,
{8}3h[8:1],4,24,1-3[12:1],,4,5h[8:1],4,
6h[8:1],5,57,8-6[12:1],,5,4h[8:1],5,
6/3-5[12:1],,3/7-3[8:1],,2-6[8:1]/7,,5-8[8:1]/2,,
1>4[8:1]*<6[8:1]/5,,1w5[8:1],,1,,37,,
{8}4b/5>7[8:4],,,,,,,,6b/2-6[8:2],,,,,,8v5[8:1]/4v1[8:1],,8bV63[8:4]/4bV27[8:4],
,,,,,,,5,,5,4,7<5[12:1],,4q8[8:1],,
2bpp3[8:2]*pp3[8:2],,12,1>7[8:2],,8,8w4[8:1]*w4[8:1],,
8b,,2pp1[16:6]/6,2/6pp6[16:4],,,,,
8>3[8:1],,8/5<8[8:1],,2>5[8:1]/5,,12,,
{16}6,,6,5,7h[8:1],,4,,5h[8:1],,8,,{8}5-2[8:1]/8-4[8:1],,
5<8[8:1]/8,,1-3[8:1]*-5[8:1],,1,,4-1[8:1]/7-3[8:1],,
7/4<1[16:3],,8w4[8:1],,,,2qq2[8:2],,
2>8[8:2]/4,,,1,1v4[8:1]*-3[8:1],,1v6[8:1]*-7[8:1],,
1,,5pp4[16:5],6,4,,3>8[8:1],,
{24}7b/3b,6,5<8[8:1],4h[8:1],,,,,,1,2,3,4-8[8:1],,,,,,6<1[8:1]/4,,,,,,
{24}2b/6b,3,4>1[8:1],5h[8:1],,,,,,8,7,6,5w1[8:1],,,,,,5,,,,,,
{8}7-4[8:1],,1-6[8:1]/7,,3-8[8:1]/1,,34,,
{16}6,,6,5,7h[8:1],,3,,3h[8:1]/4,,2,1,8,7,6,5,
{8}2-4[12:1]/4h[8:1],,1h[8:1]/2-6[8:1],,27,7h[8:1],5,46,
3/7-3[8:1],,1>4[8:1]*<6[8:1]/7,,1-5[8:1],,15,,
3h[8:1]/7-5[12:1],,7-3[8:1]/1h[8:1],,{16}78,,,2,4,,35,,
{16}4h[16:3]/6,,,8,8-4[8:1],,4bpp4[8:2]*qq4[8:2],,,,,,,,,,
{8}5pp4[16:7],,,2,2,,3,,
4p5[16:5]/5,,6,,7-3[8:1],,,,
2>5[8:2],,5<8[8:2],,8>3[8:2],,3pp4[16:5]*pp5[16:4],,
,,,,3,4,5,6,
7h[4:4]/3,,,,5,,,,3h[4:3],,,,4,,6,,
6h[8:2],,5h[8:2],,4h[8:2],,3h[8:2],,
7h[4:2],,,,5,,,,
2h[4:4]/4,,,,,,,,
6h[4:2],,,,5,,,,
34,,2,,81,,,,
65,,,,2h[256:1]/7h[256:1],,,,
4h[8:2]/5,,{16}6,5,6,5,7,,8-4[8:1]/4,,,,3,,
{8}3V51[8:2],,8,8-4[8:1]*-6[8:1],,,,5,
26,2-6[8:1],,8V24[32:5]*V64[32:5],,8,,35,
{8}2h[8:2]/6h[8:2],,,4h[8:2]/8h[8:2],,,3-6[8:1]/7-2[8:1],,
{8}
3>6[4:6],,4,4,5,4,6,5,3,3,5,4,3h[8:2],,,,
6<3[4:6]/3,,5,5,4,5,3,4,6,6,4,5,6h[8:2],,,,
5b/4<2[8:4],,,,,,,,3b/7-3[8:2],,,,,,1v4[8:1]/5v8[8:1],,1bV36[8:4]/5bV72[8:4],
,
{8},,,,,,4,,4,5,{16}3,4,3,,6,5,6,5,
{8}
7bqq7[8:2],,87,8<2[8:2],,1,1p4[8:1]*q6[8:1],,
1b,,7qq8[16:6]/3qq4[16:6],73,,,,,
1-6[8:1],,1/4-1[8:1],,7-4[8:1]/4,,87,,
{16}3,,3,4,2h[8:1],,5,,4h[8:1],,1,,{8}4<7[8:1]/1-5[8:1],,
4>1[8:1]/1,,8-5[8:1]*-3[8:1],,8,,6-1[8:1]/2v5[8:1],,
2/6>1[16:3],,8w4[8:1],,,,7pp7[8:2],,
7<1[8:2]/5,,,8,8-5[8:1]*-6[8:1],,8-3[8:1]*-2[8:1],,
8,,4qq5[16:5],3,5,,6<1[8:1],,
{24}2b/6b,3,4>1[8:1],5h[8:1],,,,,,8,7,6,5-1[8:1],,,,,,3>8[8:1]/5,,,,,,
{24}7b/3b,6,5<8[8:1],4h[8:1],,,,,,1,2,3,4w8[8:1],,,,,,4,,,,,,
{8}2v5[8:1],,8v3[8:1]/2,,6v1[8:1]/8,,65,,
{16}3,,3,4,2h[8:1],,6,,6h[8:1]/5,,7,8,1,2,3,4,
{8}7-5[12:1]/5h[8:1],,8h[8:1]/7-3[8:1],,72,2h[8:1],4,53,
6/2-6[8:1],,8<5[8:1]*>3[8:1]/2,,8-4[8:1],,84,,
6h[8:1]/2-4[12:1],,2-6[8:1]/8h[8:1],,{16}21,,,7,5,,64,,
3/7h[8:1],,2,,6h[8:1]/4,,3,,5,4,5,,3,4,3,4,
{8}
2bpp3[8:2],,12,1>7[8:2],,8,8w4[8:1],,
8b,,2pp1[16:6]/6,2/6pp6[16:4],,,,,
8>3[8:1],,8/5<8[8:1],,2>5[8:1]/5,,12,,
{16}6,,6,5,7h[8:1],,4,,5h[8:1],,8,,{8}5-2[8:1]/8-4[8:1],,
5<8[8:1]/8,,1-3[8:1]*-5[8:1],,1,,4-1[8:1]/7-3[8:1],,
7/4<1[16:3],,8w4[8:1],,,,2qq2[8:2],,
2>8[8:2]/4,,,1,1v4[8:1]*-3[8:1],,1v6[8:1]*-7[8:1],,
1,,5pp4[16:5],6,4,,3>8[8:1],,
{24}7b/3b,6,5<8[8:1],4h[8:1],,,,,,1,2,3,4-8[8:1],,,,,,6<1[8:1]/4,,,,,,
{24}2b/6b,3,4>1[8:1],5h[8:1],,,,,,8,7,6,5w1[8:1],,,,,,5,,,,,,
{8}7-4[8:1],,1-6[8:1]/7,,3-8[8:1]/1,,34,,
{16}6,,6,5,7h[8:1],,3,,3h[8:1]/4,,2,1,8,7,6,5,
{8}2-4[12:1]/4h[8:1],,1h[8:1]/2-6[8:1],,27,7h[8:1],5,46,
3/7-3[8:1],,1>4[8:1]*<6[8:1]/7,,1w5[8:1],,1,,
3h[8:1]/7b-5[12:1],,7b-3[8:1]/1h[8:1],,7b/4,4,1b-5[8:1],,
1>8[8:4],,,7,,,3,,
5h[8:3],,,4,5,3h[8:2],,6,
6h[8:2],,2h[8:4],,4h[8:2],,,,
6h[8:2],,5h[8:2],,{16}7,,,6,,,5qq5[8:7],,5pp5[8:14],,,
