&title=[ ]DENTITY
&artist=BEMANI Sound Team "HuΣeR"
&first=1.217
&des=Kage
&lv_5=14+
&inote_5=(100)
{8}1-4[4:2]/5-8[4:2],,,,,,,,6^3[4:2]/2^7[4:2],,,,,,,,
{16}6h[16:3]/4,,,5h[16:3],,,4pp8[16:6]*-2[8:1],,,,,,,,,,{24}1,2,3,7,6,5,2,3,4,8,7,6,
{16}3h[16:3]/5,,,4h[16:3],,,5,,
{16}7h[16:3]/4,,,6h[16:3],,,5qq1[16:6]*-7[8:1],,,,,,,,,,
{24}8,7,6,2,3,4,7,6,5,1,2,3,45,6,7,81,2,3,45,6,7,81,2,3,
{16}4/5h[16:3],,,6h[16:3],,,7pp2[16:6],,,,,,,,,,
{24}3,4,5,8,7,6,2,3,4,7,6,5,1,2,3,4,51,6,7,8,15,2,3,4,
{8}5/1>6[16:3],,,{32},2,3,4,
{8}5>8[16:3],,,{32},4,3,2,
{8}1V35[8:5]*V75[8:5],,,,,,,,
{24}3,4,3,5,4,5,2,3,2,6,5,6,2,1,2,7,8,7,2,4,3,7,5,6,
{24}3,4,3,5,4,5,2,3,2,6,5,6,2,1,2,7,8,7,2,4,3,7,5,6,
{32}1b,,3,5,4,,3,5,4,,2,6,4,,2,6,4,,1,7,4,,1,7,4,,2,6,4,,3,5,
{48}2b/6b,,3,6,4,,57,,4,7,3,,28,,3,8,4,,57,,4,7,3,,26,,1,6,8,,75,,8,5,1,,42,,1,4,8,,75,,8,5,1,,
{8}2p2[4:3]/6,,,,,,6p6[4:3],,,,,,4q4[4:3],,,,5,5,5h[8:1],,6,6,6h[8:1],,
{8}3qq5[4:3],4,4h[8:1],,5,5h[8:1],,6,6pp4[4:3],5,5h[8:1],,4,4h[8:1],,3,
{8}2,1,15,16,17,18,82,83,
(200)
{8}8,4,8-4[8:1],3,8^2[8:1],,,,74,{16}6,5,{8}6,3,25,4,25,{16}4,3,{8}4pp4[8:4]*-2[8:1],,,,,,2,3,47,{16}7,5,{8}6,2,16,7,83,{16}3,1,
{8}2-4[8:2],,4-1[8:2],,1-5[8:2],,5,,7-5[8:2],,5-8[8:2],,8-4[8:2],,4,,
{8}2h[8:4],3,4,5,6h[8:4],5,4V28[8:4],,4,,8V24[8:4],,7V51[8:4],,,,,,
{8}2>6[8:4],,2,,6>2[8:4],,1<6[8:2],,,,,,71,,1,7,2,6,3,5,5-1[8:1]/4-8[8:1],,
{8}54,,2b-5[8:1]/7b-4[8:1],,72,,36,,
{8}1b/8b,,2,24,,3,35,{16}4,3,2,,3,2,1,,2,1,
{8}87,6,5,4,5,6,7,{32}8,7,6,5,{8}4,2,{16}1,1,1,1,
{8}1b,,7,75,,4,46,{16}5,6,7,,6,7,8,,7,8,
{8}12,,3,2,{16}4,3,4,{8}2,18,{16}7,5,6,4,5,3,6,4,,
{8}2b/7bV58[4:3],,,1,,,2,,3,,4h[8:3],,,6h[8:3],,,{12}5,5,5,6,6,6,
{8}2V41[4:3],,,,,,,,{16}8,7,6,5,8,7,6,5,1,2,3,4,1,2,3,4,
{12}7b,5,6,2,4,3,7,5,6,2,4,3,5,6,7,3,2,1,6,7,8,4,3,2,
{12}7b,5,6,1,3,2,7,5,6,1,3,2,5,6,7,3,2,1,6,7,8,4,3,2h[8:8],
{16}8,7,6,,7,6,5,,6,5,4,,5,4,3,,7h[8:8],,1,2,3,,2,3,4,,3,4,5,,4,5,6h[4:1],,,,
{16}7,6,8,5,1,4,2,3,1,4,8,5,7,5,6,5,6w2[8:2],5,6,5,6,,,,,,,,
{16}1h[8:1]/6h[8:1],,,,15,62,73,84,1-4[8:1]/5-8[8:1],,3,2,15,,,,
8p4[8:1]/4p8[8:1],,,,8^3[8:1]/4^7[8:1],,,,,,,,
84,37,26,15,8-5[8:1]/4-1[8:1],,6,7,8-3[8:1]/4-7[8:1],,,,8-5[8:1]/4-1[8:1],,,,,,,,
7h[8:1]/3h[8:1],,,,73,26,15,84,7-2[8:1]/3-6[8:1],,5,6,73,,,,
1b/5,2,3,4,5/2b,3,4,5,6/8b,7,6,5,4/7b,6,5,4,3/1b,8,7,6,5b/8,4,3,2,1b/5,8,7,6,5b/8b,74,36,25,
1b/4b,,,,84,37,26,15,8v5[8:1]/4v1[8:1],,62,73,84,,,,
1-5[8:1]/5,26,73,84,1/5w1[8:1],,,,,,,,
84,37,26,15,8v5[8:1]/4v1[8:1],,62,73,8-6[8:1]/4-2[8:1],,,,8-4[8:1]/4-8[8:1],,,,,,,,
2h[8:1]/6h[8:1],,,,26,73,84,15,2-7[8:1]/6-3[8:1],,48,37,26,,,,
8b/4,7,6,5,4/7b,6,5,4,3/1b,2,3,4,5/2b,3,4,5,6/8b,1,2,3,4b/1,5,6,7,8b/4,1,2,3,4b/1b,25,63,74,
1bq5[8:1]/5b,,,,5/1-6[8:1],6,7,8,1^4[8:1]*-4[8:1],,,,1p5[8:1],,,,
1-4[8:1]/5,4,3,2,1^6[8:1]*-6[8:1],,,,1bq5[8:1],,,,5/1-6[8:1],6,7,8,1^4[8:1]*-4[8:1],,,,1p5[8:1],,,,
1-4[8:1]/5,4,3,2,1^6[8:1]*-6[8:1],,,,1q5[8:1],,,,1-6[8:1]/5,6,7,8,1,,,,
8b/4,7,6,5,4/8b,3,2,1,8/4b,5,6,7,8/4b,1,2,3,4/8b,1,2,3,4/8b,5,6,7,8/4b,3,2,1,8/4b,7,6,5,4/8b,37,26,51,
8bq4[8:1]/4b,,,,4/8-5[8:1],5,6,7,8^3[8:1]*-3[8:1],,,,8p4[8:1],,,,
8-3[8:1]/4,3,2,1,8^5[8:1]*-5[8:1],,,,8bq4[8:1],,,,4/8-5[8:1],5,6,7,8^3[8:1]*-3[8:1],,,,8p4[8:1],,,,
8-3[8:1]/4,3,2,1,8^5[8:1]*-5[8:1],,,,8q4[8:1],,,,8-5[8:1]/4,5,6,7,8,,,,
8b,1,2,3,4/1b,8,7,6,5/1b,2,3,4,5/8b,7,6,5,
4b/8,3,2,1,8b/4,7,6,5,
4/1b,2,3,4,5/1b,6,7,8,1b/5b,,,,
5b,3,4,3,4,3,4,3,6b,3,4,3,4,3,4,3,7b,3,4,3,4,3,4,3,8b,3,4,3,4,3,4,3,1b,3,4,3,4,3,4,3,
1b,8,7,6,1b,2,3,4,1b,8,7,6,1b,2,3,4,
{12}1,,8,,7,,{24}56,6,56,6,56,6,56,6,56,6,56,6,{12}56,,7,,8,,{24}12,2,12,2,12,2,12,2,12,2,12,2,{12}12,,8,,7,,
{16}16,2,38,7,62,3,48,7,61,2,37,6,51,2,38,7,
{8}6/1-3[8:1]*-4[8:1],,1-7[8:1]*-6[8:1],,1-5[8:1],,1w5[50#16:1],,1h[8:6],
