&title=ティアドロップス
&artist=Poppin'Party
&first=0
&des=luvlily
&lv_5=12+
&inote_5=(190){1},
{16}6h[4:9]/4,,,,,,,,,,,,,,,,
{16},,,,,,,,,,,,,,,,
{16},,,,3h[1:2],,,,,,,,,,,,
{16},,,,,,,,,,,,,,,,
{16},,,,2h[2:1],,,,,,,,1h[2:1],,,,
{16},,,,8h[2:1],,,,,,,,7h[2:1],,,,
{16},,,,6,,,,45,,3,,3,,45,,
{16}6,,6,,2,,2,,18,,,,,,,,
{16}7-4[2:1]/1,,,,,,,,,,,,,,,,
{16}2-5[2:1]/8,,,,,,,,,,6,,7,,8,,
{16}1-4[2:1],,,,,,,,,,,,,,,,
{16}5-8[8:1],,,,,,,,1,,3,4,3,,5,,
{16}7-2[8:1],,,,1,,,,3-6[8:1],,,,5,,,,
{16}8-5[8:1],,,,3,,,,4,5,4,5,4,5,4,,
{16}36,,,,6,,5,,8,,1,,8,,2,,
{16}7,,8,,7,,1,,6,,6,,5-1[8:1],,,,
{16}3,,,,3,,4,,1,,8,,1,,7,,
{16}2,,1,,2,,8,,3,,3,,5,,5,,
{16}4h[4:14],,,,3,,,,3,,,,3,,,,
{16}3,,,,3,,,,3,,,,3,,,,
{16}3,,,,3,,,,3,,,,3,,,,
{16}3,,,,3,,,,3,,,,4,,,,
{16}5h[4:7],,,,6,,,,6,,,,6,,,,
{16}6,,,,6,,,,6,,,,6,,,,
{16}8bqq4[2:1]*pp4[2:1],,,,,,,,,,,,,,,,
{16}35,,2,,4,,18,,7,,5,,46,,2,1,
{16}2-5[8:1],,8,,2,,7,,6-1[8:1],,4,,6,,3,,
{16}2-5[8:1],,8,,2,,7,,6-1[8:1],,4,,6,,,,
{16}2,,,,13,,,,13,,,,4,,5,,
{16}6,,5,,4,,3,3,4,,,,18,,,,
{16}7-4[8:1],,1,,7,,2,,3-8[8:1],,5,,3,,6,,
{16}7-4[8:1],,1,,7,,2,,3-8[8:1],,5,,3,,6,,
{16}7,,,,86,,,,86,,,,5,,4,,
{16}3,,4,,5,,6,6,5,,4,,3,,2,,
{16}1-4[2:3]/8,,,,,,7,,7,,,,,,5,,
{16},,5,,,,7,,7,,,,1,,8,7,
{16}6^3[2:2],,,,,,2,,2,,,,,,8,,
{16},,8,,,,8,,8,,,,1,2,3,4,
{16}5-8[2:3],,,,,,1,,1,,,,,,2,,
{16},,2,,,,3,,3,,,,4,,,,
{16}8b,,,,,,,,,,,,,,,,
{16}2,,3,4,3,,7,,6,5,6,,1,,2,3,
{16}4v6[2:1]/5,,,,5,,,,5,,,,5,,,,
{16}6-2[2:1],,,,5,,,,5,,,,5,,,,
{16}2-8[2:1],,,,5,,,,5,,,,5,,,,
{16}5-1[8:1],,,,,,,,2,,8,1,7w3[8:1],,,,
{16}7b,,,,,,,,,,,,,,,,
{16}57,,,,24,,,,18,,,,,,36,,
{16},,4,,28,,5,,4,,5,,17,,4,,
{16}5,,4,,28,,6,,4,,5,,17,,3,,
{16}5b/6b,,7,,7,,1b/8b,,2,,2,,3b/4b,,5,,
{16}6b-3[8:1]/7b-2[8:1],,,,6b/7b,,,,1,8,1,8,1,8,1,8,
{16}1-4[8:1]*-6[8:1],,,,1,,,,5/7-3[8:1],,,,27,,8>6[4:1],,
{16},,3,,,,1,8,7-3[8:1],,,,7/5V31[8:1]*V71[8:1],,,,
{16}5,,,,2>8[4:1],,,,1,,1w5[8:1],,,,1,,
{16},,64,,35,,24,,1,,8,,7,,6,5,
{16}6q2[8:1],,,,3^6[8:1]/6,,,,1<3[4:1],,,,2,,2-5[8:1]*-7[8:1],,
{16},,2,,,,6,5,7,,,,1-6[8:1]/8-3[8:1],,,,
{16}18,,,,45,,,,28,,4,5,3,,1^4[8:1],,
{16},,8,,7,,6,5,6,,4,,3,,2,,
{16}18,,,,,,6,6,5,,7,,,,4h[8:1],,
{16}5,,3,,,,3,3,4,,,,1,,,,
{16}54,,,,,,7,7,8,,1w5[8:1],,,,1b,,
{16},,,,34,,2,,1,,8,,6q4[4:1]/7,,,,
{16}4b<2[8:3],,,,,,2bq5[8:4],,,,,,4b^1[8:1],,,,
{16}4b,,,,,,,,,,,,,,,,
{16}6h[2:7],,,,5,,,,,,,,5,,,,
{16},,,,5,,,,,,,,5,,,,
{16},,,,5,,,,,,,,5,,,,
{16},,,,5,,,,8,,,,,,18,,
{16},,7,,6,,4,5,4,,3,,,,18,,
{16},,2,,3,,5,4,5,,6,,,,81,,
{16},,7,,6,,4,5,4,,3,,,,18,,
{16},,2-6[8:1],,13,,,,,,,,,,56,,
{16},,7-4[8:1],,8,,1,,2-5[8:1],,1,,8,,7-4[8:1],,
{16},,3,,2,,1h[4:1],,,,8,,8,,27,,
{16},,7-3[8:1],,7,,2-6[8:1],,2,,8-4[8:1],,8,,1,,
{16},,18,,27,,3h[8:1]/6h[8:1],,,,1,8,1,8,1,8,
{16}1,,,,3,,24,,,,6,,57,,1,,
{16}1pp4[2:1]/8qq5[2:1],,,,,,,,,,,,,,,,
{16}5h[1:1]/4,,,,,,,,,,,,,,,,
{16}6h[1:1],,,,,,,,,,,,,,,,
{16}7h[1:1],,,,,,,,,,,,,,,,
{16}8h[1:1],,,,,,,,,,,,,,,,
{16}1,,,,2,,,,3,,,,4,,,,
{16}5,,,,6,,,,7,,,,8,,,,
{16}1,,1,,8,,8,,2,,2,,7,,7,,
{16}3,,3,,6,,6,,4-8[8:1],,,,5h[1:1],,,,
{16},,,,6b,,,,,,,,,,,,
{32}1,2,3,4,5,6,7,8,1,2,3,4,5,6,7,8,
{32}1,2,3,4,5,6,7,8,1bw5[8:1],,,,,,,,
{16}1b,,,,8-5[8:1],,,,8/2-6[8:1],,,,72,,1<3[4:1],,
{16},,6,,,,8,1,2-6[8:1],,,,2/4V68[8:1]*V28[8:1],,,,
{16}4,,,,7<1[4:1],,,,8,,8w4[8:1],,,,8,,
{16},,35,,64,,75,,8,,1,,2,,3,4,
{16}3p7[8:1],,,,6^3[8:1]/3,,,,8>6[4:1],,,,7,,7-4[8:1]*-2[8:1],,
{16},,7,,,,3,4,2,,,,8-3[8:1]/1-6[8:1],,,,
{16}81,,,,54,,,,71,,6,5,7,,8^5[8:1]/1,,
{16},,1,,2,,3,4,3,,5,,6,,7,,
{16}81,,,,,,3,3,4,,2,,,,5,4,
{16}6,,6,,,,7,7,5,,,,8,,,,
{16}45,,,,,,2,2,1,,8w4[8:1],,,,8b,,
{16},,,,65,,7,,8,,1,,3p5[4:1]/2,,,,
{16}5b>7[8:3],,,,,,7bp4[8:4],,,,,,5b^8[8:1],,,,
{16}5b,,,,,,,,,,,,,,,,
{16}2b/6b,,,,75,,6,,4,,5,,24,,1,,
{16}7,,8,,46,,7,,1,,8,,2-5[8:1]/7-4[8:1],,36,,
{16}2b/7b,,,,24,,1,,6,,8,,57,,1,,
{16}3,,5,,68,,7,,3,,1,,7-3[8:1]/8-4[8:1],,25,,
{16}7b/8b,,,,56,,3,4,6,,6,5,2,,2,3,
{16}7,,7,6,1,,1,2,8,,8,7,1w5[8:1],,1,2,
{16}1b,,,,37,,4,5,26,,5,4,37,,4,5,
{16}16,,3,6,4,5,4,5,2,7,4,5,4,5,4,5,
{16}1b,,,,,,,,,,,,,,,,
{16},,,,,,,,,,,,,,,,
{16},,,,,,,,,,,,,,,,
{16},,{24}2,3,4,5,6,7,8,1,2,{16}3,,8,,3b/7b,,1b/5b,,
{16},,,,,,,,,,,,,,,,
{16},,,,,,,,,,,,,,,,
