&title=【电棍】What is Love
&artist=滴锥
&first=0.296
&des=心白-HW
&des_5=心白-HW
&lv_5=12+
&inote_5=(170){4},{8},,,,,5bh[8:3]/4bh[8:3],
,,,,,,,,,,,,,,,,{4}2,
2h[2:1],{8}8h[8:5],,,1,
,1h[8:5],,7h[8:3],,,,,{4}6,
6h[2:1],{8}4h[8:5],,,5,
,5h[8:5],,3h[4:1],,,,,{4}4,
4,5,{8}5,4,
,4,,5,,5,4,5,
{1}4v2<7[2:1],
{16},5xh[8:1]/6xh[8:1],,,,4xh[8:1]/3xh[8:1],,,,1xh[8:1]/2xh[8:1],,,,7xh[8:1]/8xh[8:1],,,{4}7x<5[8:1],
{8}1,1,2/4xq8[8:1],2,3,3,
7x<5[8:1],2,,1,{4}4xq8[8:1],{8}1,2,
3/7x<5[8:1],3,,3,{4}4xq8[8:1],{8}3,2,
1/7x<5[8:1],1,,2,4xq8[8:1],2,3,3,
7x<5[8:1],3,,,4xq8[8:1],{32},,,,,,,,1x,2x,{16}3xh[16:9],
{2}7x<5[8:1],{8}4xq8[8:1],3,2,1,
2/7x<5[8:1],2h[8:5],,,{2}4xh[4:1],
{4}2bx/3bx,5bx/4bx,6bx/7bx,1bx/8bx,
2x>4[8:1],{8}8,8,7/5xp1[8:1],7,6,6,
2x>4[8:1],7,,8,{4}5xp1[8:1],{8}8,7,
6/2x>4[8:1],6,,6,{4}5xp1[8:1],{8}6,7,
{4}8/2x>4[8:1],{8}7,7,5xp1[8:1],7,6,6,
2x>4[8:1],6,,,5xp1[8:1],{32},,,,,,,,8x,7x,{16}6xh[16:9],
{2}2x>4[8:1],{4}5xp1[8:1],{8}8,7,
{4}6/2x>4[8:1],6,7/5xh[4:1],7,
{12}6,5,7,3,4,2,8,1,7,2,6,3,
{4}5,{12}3,4,3,{4}C,4,
5,6h[4:1],C,{8}3,{16}5,4,
{4}5,{16}3,3,4,2,{4}C,5,
{8}6,4,{4}7h[4:1],C,4,
{8}6,{16}4,5,{8}4,5,3,6,2,7,
{24}E2,B2,{12}B3,{24},,{8}E5/A5,{24}E8,B7,B6,,,,{8}E5/A4,,,{4}3/5,
{8}6/4,Ch[8:3],,,,1/8,
,,,,7,7h[8:1],1>5>1[2:1],1,
7,8,1>5>1[2:1],8,7,8,1,8,
{4}7w3[8:1],7,{8}2,2h[8:1],8<4<8[2:1],8,
2,1,8<4<8[2:1],1,2,1,8,1,
{4}2w6[8:1],2,{8},8/1,{4}7/2-4[8:1],
2/1-5[8:1],1/8-4[8:1],8/7-5[8:1],7/1>8[8:3],
{2}1,{32}1x,2x,3x,4x,5x,6x,7x,8x,{4}1x/Cf,
8<5[4:1],5q1[4:1],1p4[4:1],4>1[4:1],
1p5[16:3],4,{8}2,2h[8:1],8<4V68[2:1],8,
2,1,8V64<8[2:1],1,2,1,8,1,
{4}2w6[8:1],2,{8}7,7h[8:1],1V35>1[2:1],1,
7,8,1>5V31[2:1],8,7,8,1,8,
{4}7w3[8:1],7,{8},1/8,{4}2/7-3[8:1],
7/8-4[8:1],8/1-5[8:1],1/2-6[8:1],2/8<1[8:3],
{2}8,{32}8x,7x,6x,5x,4x,3x,2x,1x,{4}8x/Cf,
1>4[4:1],4p8[4:1],8<5[4:1],5q1[4:1],
1,7,{8}8/2,{16}1x,1x,{4}1xw5[8:1],
E
