&title=Ego Eimi
&artist=BlackY feat. Risa Yuzuki
&first=0
&des=FlowErCaaat feat. はなちみ
&lv_5=14
&inote_1=
&inote_5=(178)
{8},,,,,,,,7-1[4:1]*V53[4:1]/B2`C1`B6,,,,,7,6,2>1[8:3],,2h[8:3],,,,,
{8}8,7,4h[2:3],,E8,B7,,B6,,B5,{16}E4,E3,E2,E1,E8,E7,E6,E5,,,,,
{8}2-5[8:1],2,2/6h[8:3],,C1,B1,,,2,3,7,8h[8:5],,2h[8:1],,,1p6[2:1]*q4[2:1],,1,,,,,,
{8}3,2,1/8,2-5[8:1]/7-4[8:1],,2<5[8:3]/7>4[8:3],,2/7,,,A4/A5/E5/D5,,,,
{4}2>5[4:1],5<8[4:1],8>5[8:3],{8},5-1[4:1],,,7<4[4:1],,4<1[8:3],,,1z5[8:3],,,
{8}5<1[8:3]*>1[8:3],,,,,,,3,1x,1x,{32}2/E7,B6,B5,,{8}3h[8:6],,4,,5,,6pp4[8:3],,6,,,,
{8}3,3,8,7/3,6h[2:1],,2,,7pp4[8:3]/2qq5[8:3],,7/2,,,,3x/6x,3h[2:1]x/6h[2:1]x,,,,
{8},,1>4[2:1]/5,,5,,6,,7<4[2:1],,3,,2,,1,,2>5[2:1],,6,,7,,8,,8<5[2:1],,4,,3,,2,2,
{8}2/5,2,2/6,2,2/7,2,2/8,2,8/2,8,8/3,8,8/4,8,8/5,8,
{16}5,8,5,8,4,7,4,7,3,6,3,6,2,5,2,5,
{32}1x,2x,3x,4x,5x-8[8:1],6x,7x,8x,
{8}1x-4[8:1]/5,5,1,{16},7,,,6,,{8}5h[4:13]/3,,,3>3-8-5-3[8:21],,,,,,,,,,,,,,,,,,,,,,,,,
{8}1>4[8:1],,7/1<6[8:1],,1-5[8:1]/2,,1/7,8,1/4,{16}4,7,{8}3,2-5[8:1]/6-1[8:1],,2/6,A1/A5,,
{8}1-5[8:1],,2/1-6-3-8[2:1],,7/1,7-4[8:1],,7,,,1,2qq4[4:1]/6h[4:2],,,,,,
{8}7,1-5[8:1],1,8<5[8:1],,8,4-8[8:1],,4<7[8:1]/5,,4>1[8:1],,4,8-4[8:1],,8>3[8:1],,
{8}6/8,,7bh[4:1]/B3/B4/E4,,1,1b/B5/B6/E6,,8b/B4/B5/E5,,1bw5[8:1]/B8/B7/E8,,1b,,,
{8}7-4[8:1],,7/1-5[8:1],,1/8<5[8:1],,8/1,{16}2,2,{8}4x-8[8:1],,4/6-1[8:1],5,
{8}6/2-5[8:1],3,2/8-4[8:1],,8>3[8:1],,8,,{32}7x/E3,6x/E2,5x/E1,4hx[32:5],,,,,,,,,
{32}1x/5x,2x/6x,3x/7x,4hx[32:5]/8hx[32:5],,,,,,,,,1>5s1[8:3]/8<4z8[8:3],,,,1/8,,,,
{16},,,,,,,,2/7,,,3/6,,,1/8,,
{8}1-6[8:1],1,8-3[8:1],8,2-5[8:1],2,7-4[8:1],7,8-3[8:1],8,1-5[8:1],,
{16}1x/2,,,,3,,4/7,,{8}8-4[8:1],8,1-5[8:1],1,2-6[8:1],2,3,3,
{16}4x,5x,6x,7x,8x,1x,6/2x,,2x/7,,,3/6,,,4/5,,
{8}4b/5b,4/5,,4b/5b,4/5,,4/5,3/6,
{16}B2,B3,B4,B5,E8,E7,E6,E5,1x,2x,3x,4x,7,6,5,4,
{16}1-4[8:1],,,7h[16:1],1,,8-5[8:1],,,2h[16:1],8,,1>4[8:1],,7,7,1-5[8:1],,,
{16}6h[16:1],1,,7,,4,6,2,1,3,8,4,7,5-2[8:1],,,
{16}7h[16:1],5,,8-4[8:1],,,3h[16:1],8,,2,5,2,7,2,3,4,5,1,8,7,6,1,2,3,4,5,6,7,8,1-5[8:1],
{16},,,1/7,,7,3,7,2h[16:3],,,8<5[8:1],2,8,1,8-4[8:1],,,1h[16:1],8,,2,,
{16}3,5,2,6,1,8,1,7,2,5,2,5,3,6,3,6,2,7,2,7,3,8,4,7,5,6,5,6,4,5,3,6,1,8,2,7,1,8,2,7,
{8}1-5[8:1],1,8-6[8:1],8,1-3[8:1],1,8,{16}8,7,
{8}6-1[8:1]/2,3,3/6,2,7/2-5[8:1],6,7/2,8,
{16}8,4,8,4,8,3,7,2,6,4,7,5,6,8,7,1,5,3,4,2,1,3,8,2,6,4,7,3,8,2,7,1,
{8}8/B2,8,8/B4/B3,8,3/B7,3,3/B5/B6,3,5/B1,6/B2,7/B3,8/B4,
{8}4x/E8,3x/E7,2/E6,1/E5,
{12}1x,4x,3,8,5,6,2,1,4,7,8,5,{24}1,2,3,4,5,6,8,1,2,3,4,5,1,8,7,6,5,4,7,,
{24}6x/1x,,5x/2x,,{1}3x-7<5-1>3[2:3]/4hx[4:4],{8},,,,,B8,B7,B6,
{1}4-8<6-2>4[2:3]b/5hx[4:7],,3h[4:5]/5pp5qq5[2:2],
{8},,,,,6,7,8,{32}1b/2b,3,4,5,,,,,8,,,,8b/7b,6,5,4,,,,,1h[4:1]/2b,3,4,5h[32:5],,,,,
{32},8x/4x,7x/3x,2x/6x,{1}5hx[4:3]/1hx[1:1],C1h[1:3],,,{2},
{8}7b/1-5[8:1],,1b/7-3[8:1],,7b/1>8[2:1]*w5[8:1]b,,1/B1/C1/B4/B5/B6,,,,1,1,,4/5,4/5,,
{16}3/5,,,4/6,,,2/7,,{24}1b/8,2,3,4,5,6,7,8,1,2/7b,6,5,4,3,2,1,8,7,6h[2:1]/2b>1[8:3],,,,,,
{8},,,,{16}7/3,,,6/2,,,1/5,,{8}8-4[4:3],,7,1,,2,,8>5v2[8:3],,8,,,{16}6,,,6,,,7/2,,
{8}7b/1b,7b/1b-5[8:1],,1/7b-3[8:1]/C1,,7/1b>8[4:1]/C1,,1bq4[2:1]*p6[2:1]/7,,,,,,,
{8}3x,2x,1-5[8:1],1,8-6[8:1],8,1-3[8:1],1,8-4[8:1],8,1-5[8:1],2,1/8-4[8:1],7,
{16}8/2>6[4:1],,,5x<1[4:1],,,8x>4[4:1],,8-2-4[8:1],,,,,,7,,7>7[2:1],,,,E7,E8,E1,E2,E3,E4,E5,E6,E7,,1,,2/4,,,3/5,,,7/8,,
{16}8b/7,1,2,3,4,5,6/8b,1,2,3,4,5,6/3b,2,1,8,7,6,5/8b,7,6,5,4,3,2/8b,,,1/4,,,2/5,,3h[2:3]/6h[2:3],,
{8},,,,,,,,,,,{24}E7,E8,E1,4x,3x,2x,1x-5[8:1],,,,,,
{16}1/7-4[8:1],,8,3,7-3[8:1],
,2>5[8:1],,7,,2-6[8:1],,8-5[8:1],,2,,
{32}8-3[8:1],,,,4x,,,,8-6[8:1],,,,5x,,,,8-2[8:1],,,,3x,,,,8,,,,,,,,
{16}1-5[8:1],,2,7,1-6[8:1],,8,3,1,,2,,{12}1x/5x,2x/6x,3x/7x,{32}4x/8x,5,6,7,8,1,2,3,4,5,6,7,8,1,2,3,
{8}4/8-5[8:1],1,8-4[8:1],1,{16}8/2-5[8:1],,1,6,2-6[8:1],,8,,2,,8b<4[4:1],,,5b>1[4:1],,,2b<8[8:1],,,,
{16}1x-5[8:1],,,,1x/7x<4[8:1],,7x,3,7x,,2,,
{32}2x/6x,3x/7x,4x/8x,1h[32:21]x/5h[32:9]x,,,,,,,,,,4x,3x,2h[32:9]x,,,,,,,,,,3x/8x,4x/7x,5h[32:13]x/6h[32:13]x,
{8},,,,,1>4[8:1],,7/1<6[8:1],,1b-5[8:1]/2b,,1/7,8,1/4,{16}4,7,{8}3,2-5[8:1]b/6-1[8:1]b,,2/6,A1/A5/B1/B5/E1/E5,,
{8}1-5[8:1],,2/1-6-3-8[2:1],,7/1,7-4[8:1],,7-2[8:1]b,,{16}7/3-7[16:1]b,,,3/1-5[16:1]<4[2:1]b,,,{32}1,B1,C1,B5,
{8},,,{16}6x,,,7x,,,8x,,
{8}1-6[8:1],1,5-2[8:1],5,4-7[8:1],4,8-3[8:1],8,1bxw5[8:1],,1,,
{8}3/7,3/7,6/2,6/2,1b/5,3,8b/4,6,1b/3,5b/6,1/7b,3/4b,
{24}2b,3,4,5,6,7,8,1,2,{16}3/7b,6,5/1b,2,3,4/6b,7,8,{32}1/4b,5,6,7,8,1,2,3,
{32}4p5<4[4.55##4]b/8b,7,6,5h[32:97],
