&title=Collision
&artist=Laur
&first=0
&des=Stella
&des_5=Stella
&lv_5=14+
&inote_5=(200){4},{8},,,,,,6/4,
5,4,3/5,,4,5,4/6,
,5/3,4,5,{4}4/6,7/3,
{8}8h[32:1]/2h[32:1],,,7/3,,4,5,4/6,
,7,2,8,1,7,2,6,
3/5,4,5,6/4,,5,4,5/3,
,4/6,5,4,{4}5/3,2/6,
{8}1h[32:1]/7h[32:1],,,7/1,,2,6,3,
{2}5/4,{16}2/6,3,4,5,6,7,8,1,
{1}6pp5[2:3]/2pp1[2:3],
,3qq4[2:3]/7qq8[2:3],
{8},,,,,,,,1/2,
3,5/4,6,7/8,1,{4}2/5,
{8}3/4,2,1/8,7,6/5,4,{4}3/8-4[8:1],
{8}1-5[8:1],2,8,7,{16}6,4,6,4,5,3,5,3,
2xh[8:1]/6xh[8:1],,,8h[8:1]/4h[8:1],,,{8}2/6,{2}8z4b[8:1]/1s5b[8:1],
{4}8h[8:1]/2h[8:1],{8}4/6,{16}2,1,,3,{8}4,{4}7h[8:1]/1h[8:1],
4h[8:1]/3h[8:1],{8}5/2,1/6,{2}8V64[8:1]/7v5[8:1],
{4}1h[8:1]/7h[8:1],{8}5/3,{16}7,8,,6,{8}5,{4}2h[8:1]/8h[8:1],
5h[8:1]/6h[8:1],{8}4/7,8/3,{2}1V35[8:1]/2v4[8:1],
{4}8/2,{8}6/5,4/3,1/2-6[8:1],1,{4}8,
7/1,{8}3/4,5/6,8/7-3[8:1],8,{4}1-5[8:1],
{8}8-4[8:1],7,1,2,{16}3,5,3,5,4,6,4,6,
7xh[8:1]/3xh[8:1],,,5h[8:1]/1h[8:1],,,{8}3/7,{2}8z4b[8:1]/1s5b[8:1],
{4}1xh[8:1]/7xh[8:1],{8}5/3,{16}7,8,,6,{8}5,{4}2h[8:1]/8h[8:1],
5h[8:1]/6h[8:1],{8}4/7,8/3,{2}1V35[8:1]/2v4[8:1],
{4}8h[8:1]/2h[8:1],{8}4/6,{16}2,1,,3,{8}4,{4}7h[8:1]/1h[8:1],
{16}1,8,1,8,1,8,1,8,1,8,2,7,3-7[8:1],6,4,5,
,,,,{8}1b<6[8:1],2,3,4b>1[8:1],5,6,
7b<4[8:1],8,1,2b<7[8:1],3,4,{4}5b,
{8}4/6,5,6/8,7,8/2,1,4/2,3,
{16}5,4,5,4,6,3,6,3,7,2,7,2,8,1,{8}8,
{24}3,2,1,8,7,6,3,2,1,8,7,6,{4}5/4,8/1,
{24}7,6,5,4,3,2,7,6,5,4,3,2,{4}8/1,5/4,
{2}1-4[8:1]/4-7[8:1],8-5[8:1]/5-2[8:1],
6-2[8:1]/3-7[8:1],8-5[8:1]/1-4[8:1],
{24}2,3,4,5,6,7,2,3,4,5,6,7,{16}8/1,,,4/7,,,{8}5/2,
{24}6,7,8,1,2,3,{8}4/8,2/6,,5/1,,3h[8:1]/7h[8:1],
,,{4}2bxh[16:3]/4bxh[16:3],5bxh[16:3]/7bxh[16:3],{16}6bxh[32:1],3bxh[32:1],6bxh[32:1],3bxh[32:1],
{8}5bxh[16:1]/4bxh[16:1],5bxh[16:1]/6bxh[16:1],4bxh[16:1]/5bxh[16:1],3bxh[16:1]/4bxh[16:1],{4}4bxh[8:1]/5bxh[8:1],{16}3,6,2,7,
{4}8/1,{16}4,3,2,1,8/4,5,6,7,8/1,2,3,4,
5/8,7,6,5,4,3,2,1,8/4,3,2,1,8,7,6,5,
{4}4b/8b,6bh[8:1]/3bh[8:1],{16}1b/Cf,,,7b/Cf,,,{8}3b/Cf,
5bxh[2:1],,,,,6/4,3/7,8/2,
{16}6h[8:1]/1h[8:1],,,3h[8:1]/8h[8:1],,,{8}7h[8:1]/2h[8:1],,5/4,3/6,8/1,
{16}5h[8:1]/2h[8:1],,,4h[8:1]/7h[8:1],,,{8}3/6,{4}5/4,6/2,
4/8-4[4:7],{12}2,3,4,1,2,3,8,1,2,
6,5,4,7,6,5,8-4b[8:1],7,{3}6,
{8}6/2V83[4:1],5,4/2,7,,1/5,2,3,
8/4V25[4:1],7,6/4,1,,3/7,4,5,
2/6V47[4:1],1,8/6,3,,5/1,6,7,
{32}4/6,3,2,1,8,7,6,5,{4}8-4[8:1]/4-8[8:1],{2}4<6[8:1]/8>2[8:1],
{8}3/7V16[4:1],4,5/7,2,,8/4,7,6,
1/5V74[4:1],2,3/5,8,,6/2,5,4,
7/3V52[4:1],8,1/3,6,,4/8,3,2,
{4}5V74[4:1]/1V38[4:1],{8}1/5,E8/E4/Cf,,6b/2b,,6b/2b,
3/7V16[4:1],4,5/7,2,,E5,E6/E4,E7/E3,
{4}E8/E2,{32}E1,E2,E3,E4,E5,E6,E7,E8,{8}E1,6x,5x,4x,
7/3V52[4:1],8,1/3,6,,4/8,3,2,
{32}5/3,6,7,8,1,2,3,4,{4}1-5[8:1]/5-1[8:1],{2}5>3[8:1]/1<7[8:1],
{8}6/2V83[4:1],5,4/2,7,,1/5,2/6,3/7,
{16}8b,4,8,4,8,4,{8}8,{2}1-7[8:1]/5-3[8:1],
{16}2b,6,2,6,2,6,{8}2,{2}3-7[8:1]/7-3[8:1],
{16}8b,2,8,2,8,2,{8}8,{16}1b,1,1,1,1-5b[8:1],1,1,1,
{1}Cf/B1/B5/1bx>3<5<7>1-7-5-3-1[2:7],
,7h[4:7],
{8},,,,,,,,6/4,
5,4,3/5,,4,5,4/6,
,5/3,4,5,{4}4/6,7/3,
{8}8h[32:1]/2h[32:1],,,2/8,,7,3,6,
{2}4/5,{16}7/3,6,5,4,3,2,1,8,
{2}7/3h[4:7],{32}7xh,E7,{16}B6,,,,,,,,,,,{4}5x,
{32}7xh,E7,{16}B6,,,,,,,{2}6h[4:7],
{32}2xh,E3,{16}B3,,,,,,,4x,
,,4x,,,{8}3x,{32}2xh,E3,{16}B3,,,,,,,{1}3h[1:1]/Ch[4:5],
{4},2x,{32}1,2,3,4,5,6,7,8,1,2,3,4,5,6,7,8,
{8}1/5,5/1,6/2,6/2,7/3,7/3,4/8,4/8,
{16}1,5,8,4,7,3,6,2,{32}5,4,3,2,1,8,7,6,{4}5b/4b,
{2}8b<5b[8:1]/1b>4b[8:1],{16}8bh[8:1]/2bh[8:1],,,7bh[8:1]/1bh[8:1],,,,,5bh[8:1]/2bh[8:1],
,,7bh[8:1]/4bh[8:1],,,{8}6b/3b,{16}4,5,3,6,2,7,1,8,
{2}8x<6[8:1]/1x>3[8:1],5-8[8:1]/4-1[8:1],
7-3[8:1]/2-6[8:1],{8}5b/4b,5b/4b,{16},8b/1b,7bx/2bx,6bx/3bx,
{4}5bx/4bx,{12}2,2,2,3,3,3,4,4,4,
5,5,5,6,6,6,{2}7bw3b[8:1],
8x<6[8:1]/1x>3[8:1],{16}4,5,3,6,2,7,1,8,
2b,7,1,8b,2,7,1b,8,,,,,6b,3b,{8}5b,
{32}4xw8[8:1],3x,2x,1x,8x,7x,6x,5x,{4}4x,{16}B4/B3/A4/A3/E4f/D4,,,B5/B6/A5/A6/E6f/D6,,,,,B1/B2/A1/A2/E2f/D2,
,,B8/B7/A8/A7/E8f/D8,,,{8}E5f/B5/A4/A5/D5/B4,{2}B6/B3/B2/B7/B1/B8/Cf,
{32}5xw1[8:1],6x,7x,8x,1x,2x,3x,4x,{4}5x,{16}B5/B6/A5/A6/E6f/D6,,,B4/B3/A4/A3/E4f/D4,,,,,B8/B7/A8/A7/E8f/D8,
,,B1/B2/A1/A2/E2f/D2,,,{8}E5f/B4/A5/A4/D5/B5,{2}B3/B6/B7/B2/B8/B1/Cf,
{32}8bx/1bx,E8/E2,B7/B2,B6/B3,,,,,{4}3bxh[8:1]/5bxh[8:1],4bh[8:1]/6bh[8:1],{8}4b/5b,6b/3b,
{4}6bh[8:1]/4bh[8:1],5bh[8:1]/3bh[8:1],{16}6b,3b,7b,2b,{4}8bx/1bx,
{8}5/3,4,3/1,2,1/7,8,5/7,6,
{16}4,5,4,5,3,6,3,6,2,7,2,7,1,8,{8}1,
{24}6,7,8,1,2,3,6,7,8,1,2,3,{4}4/5,1/8,
{24}2,3,4,5,6,7,2,3,4,5,6,7,{4}1/8,4/5,
{2}8-5[8:1]/5-2[8:1],1-4[8:1]/4-7[8:1],
3-7[8:1]/6-2[8:1],1-4[8:1]/8-5[8:1],
{24}7,6,5,4,3,2,7,6,5,4,3,2,{16}1/8,,,5/2,,,{8}4/7,
{24}3,2,1,8,7,6,{8}5/1,7/3,,8/4,,2h[8:1]/6h[8:1],
,,{4}7bxh[16:3]/5bxh[16:3],4bxh[16:3]/2bxh[16:3],{16}3bxh[32:1],6bxh[32:1],3bxh[32:1],6bxh[32:1],
{8}4bxh[16:1]/5bxh[16:1],4bxh[16:1]/3bxh[16:1],5bxh[16:1]/4bxh[16:1],6bxh[16:1]/5bxh[16:1],{4}5bxh[8:1]/4bxh[8:1],{16}6,3,7,2,
{4}1/8,{16}5,6,7,8,1/5,4,3,2,1/8,7,6,5,
4/1,2,3,4,5,6,7,8,1/5,6,7,8,1,2,3,4,
{4}5b/1b,3bh[8:1]/6bh[8:1],{16}8b/Cf,,,2b/Cf,,,{8}6b/Cf,
4bxh[2:1],,,,,3/5,6/2,1/7,
{16}3h[8:1]/8h[8:1],,,6h[8:1]/1h[8:1],,,{8}2h[8:1]/7h[8:1],,4/5,6/3,1/8,
{16}4h[8:1]/7h[8:1],,,5h[8:1]/2h[8:1],,,{8}3/6,{4}4/5,3/7,
5/1-5[4:7],{12}7,6,5,8,7,6,1,8,7,
3,4,5,2,3,4,1-5b[8:1],2,{3}3,
{2}1>5[2:1],5<1[2:1],
{1}1>5[2:1]*s5[2:1],
{2}8<4[2:1],4>8[2:1],
{1}8<4[2:1]*z4[2:1],
{8}1/2,3,5/4,6,7/8,1,{4}2/5,
{8}3/4,2,8/1,7,6/5,4,{4}3/8,
{1}5pp8[2:1]/4qq1[2:1],
{16}1,8,1,8,1,8,1,8,{32}2,3,4,5,6,7,8,1,2,3,4,5,6,7,8,1,
{1}2bh[8:13]/6bh[8:13],
{8},,,,,,5,4,
7/3V52[4:1],{16}7,8,{8}3/1,6,,4/8,3,2,
{32}5/3,6,7,8,1,2,3,4,{4}1-5[8:1]/5-1[8:1],{2}5>3[8:1]/1<7[8:1],
{8}6/2V83[4:1],{16}6,5,{8}2/4,7,,1/5,2,3,
8/4V25[4:1],{16}8,7,{8}4/6,1,,3/7,4,5,
2/6V47[4:1],{16}2,1,{8}8/6,3,,5/1,6,7,
{4}4V25[4:1]/8V61[4:1],{8}8/4,Cf/E6/E2,,3b/7b,,3b/7b,
6/2V83[4:1],{16}6,5,{8}2/4,7,,E5,E4/E6,E3/E7,
{4}E2/E8,{32}E1,E8,E7,E6,E5,E4,E3,E2,{8}E1,3x,4x,5x,
2/6V47[4:1],{16}2,1,{8}8/6,3,,5/1,6,7,
{32}4/6,3,2,1,8,7,6,5,{4}8-4[8:1]/4-8[8:1],{2}4<6[8:1]/8>2[8:1],
{8}3/7V16[4:1],{16}3,4,{8}5/7,2,,8/4,7/3,6/2,
{16}1b,5,1,5,1,5,{8}1,{2}8-2[8:1]/4-6[8:1],
{16}7b,3,7,3,7,3,{8}7,{2}2-6[8:1]/6-2[8:1],
{16}1b,7,1,7,1,7,{8}1,{32}8b,7,6,5,4,3,2,1,8,7,6,5,4,3,2,1,
{4}8bh[4:1],{16}3b,4,3,4,3b,4,2,5,1b,6,8,7,
2b,1,3,8,4b,7,5,6,8b,7,1,6,2b,5,3,4,
1b,2,3,4,6b,5,6,5,6b,5,7,4,8b,3,1,2,
7b,8,6,1,5b,2,4,3,1b,2,8,3,7b,4,6,5,
{8}4x/7x,{16}6,5,{8}6,5/2,{16}3,4,{8}3,2/8-4b[8:1],7/1,
8b/2b>5b[8:1],3,{32}2b/1b-5b[8:1],8x,7x,6x,,,,,{8}1b/7b<4b[8:1],6,{32}7b/8b,1x,2x,3x,,,,,{8}1/2,
5/6,8/7,4/3,6/2,8/4,5/1,7/3,
{16}2b,6,4b,8,2b,6,4b,8,{32}2b,3,4,5,6,7,8,1,6b/2b-6b[8:1],5,4,3,2,1,8,7,
{1}Cf/B6/B2/6bp5[2:3]/2bp1[2:3],
{8},,,,,,,,B4,
B6,B2,B8,B3,B5,B1,B7,
E5,E7,E3,E1,2x-6b[8:1],7x-3b[8:1],
E
