&title=Vulnerability
&artist=BEMANI SOUND TEAM "ZAQUVA"
&first=0
&des=RNK FUMEN TEAM "RABIHOSHI"
&lv_5=14
&inote_5=(167)
{4},{1},{4},,,{1}6/5>2[4:3],
8<5[4:3],
{4}1h[8:7],{8}E5,E4,E6,C,,8h[8:5],
,6,5,4,{4}3,{8}1/2,3,
{16}5/4h[16:7],{4},{8},{16}5,{8},3,5/4,6,
7/8,1,{16}2/8h[16:3],{8},{16}1,{8},7,1/8,2,
{4}3/7h[8:7],{8}E5,E6,E4,C,,8>5[8:5],
,5,6,7,8,1,{4}2-6[8:1],
2/4-8[8:1],{8}4/5-7[8:1],6,5/4,3h[4:1],,E2/B1/B2,
,7,6/5,4,5/3-8[8:1],2,{4}3/7-3[8:1],
7/5-1[8:1],{8}5/4-2[8:1],3,4/5,6h[4:1],,E8/B7/B8,
,2,3/4,5,{4}6-1[8:1]/4-1[8:1],4b/6b,
{8}7,6/8,3,{16}2/4,2,{8}8,7/1,4,{16}3/5,3,
{8}1,2/8,5,{16}4/6,4,{8}8,1/7,6/4,{32}E4,B3,{16}B2,
7,8,6,1,5,2,4,3,6,5,7,4,8,3,1,2,
{4}1s5[4:1],5<4[4:1],,8xw4[8:1],
{8}8b,{4},{8}2/6,{16}3,4,,6,{8}5,{16}1,8,
{8}8-4[8:1]/1-5[8:1],2/7,{16}8/1,{8},{16}2,4,2,{8}4,{16}7,5,,8,
3,3,1,2,2,8,1,1,7,8,8,6,4,4,5,5,
{8}2V48[4:1],1,{16}2/8,{8},{16}6,{8}6-2[8:1],5/7,{4}6,
{8}3/4,8,{16}5/6,6,{8}1,2/4,{16}6,5,,7,{8}8,
6/5,1,{16}4/3,3,{8}8,{16}5/7,7,3,4,,2,{8}1,
4/3,1/8,{16}6/5,6,{8}1,1/8,{16}2,4,3<1[2:1],8,1,7,
{2}3,{8}4-7[8:1],5/2,{4}4/3qq8[8:3],
3/7<4[8:1],7,{16}6,7/5-1[16:1],{8},{16}2-7[16:1],{8},{16}6-3[16:1],
{8},8-4[16:1],{16},5,{8},{16}2-7[16:1]/6-3[16:1],{8},{16}6/2,{8},1h[16:1],
5,6,7,8,{16}1,2,3,4,{32}5,6,7,8,1,2,3,4,
{2}1b/5-1b[4:1],5w1[8:1],
7xV53[8:1]/3xV57[8:1],{8}1,{16}6,5h[8:1],,7,{8}8h[8:1],
{16}4,2,{8}1h[8:1],{16}3,4h[8:1],,8,{8}7h[8:1],{16}4,5/3,,8,{8}7/1,
{2}2V46[8:1]/6V42[8:1],{16}8x,8x,5,6h[8:1],,3,{8}4h[8:1],
{16}1,7,{8}8h[8:1],{16}6,5h[8:1],,8,{8}1h[8:1],{16}6,7/5,,2,{8}1/3,
{2}7<5[8:1]/4q8[8:1],{8}1,{16}4,3,3,7,{8}8h[8:1],
{16}6,2,{8}1h[8:1],{16}4,5h[8:1],,8,{8}7h[8:1],{16}3,2/4,,7,{8}6/8,
{2}2>4[8:1]/5p1[8:1],{16}7,7,8,6h[8:1],,3,{8}1h[8:1],
{1}4q7[2:1]*p1[2:1],
{4}2-5[8:1]/8-5[8:1],2b/8b,{8}1,{16}1,8,,8,{8}6,
{16}6,8,{8}1,{16}1,3,,3,{8}1,{16}1,8,,8,{8}1,
{4}2-5[8:1]/7-4[8:1],7/2,{16}1,1,8,6,,6,{8}8,
{16}1,3,{8}1,{16}5,7,,4,{10}2x,2x,2x,8x,8x,
{8}7-4[8:1]/1-4[8:1],{16}8,8,{4}7b/1b,{8}8,{16}8,1,,1,{8}3,
{16}3,1,{8}8,{16}8,6,,6,{8}8,{16}8,1,,1,{8}8,
{4}7-4[8:1]/2-5[8:1],2/7,{16}8,8,1,8,,8,{8}1,
{12}7x/2x,6,5,4x/1x,2,3,4x/5x,6,7,2x/8<4[4:3],{6},3x,
{12}3,2x,,2,{4}1x,8>4[4:3],
{6}5x,{12}5,6x,,6,{4}7x,{12}8-5[4:1],,3,
{4}3x,{12}1-4[4:1],,6,{6}6x,7,{12},7xqq1[12:7],
{6},{12}4,4x,,3,{6}3x,{12}2,2x,{6},4V28[2:1],
{12}8,7x,,7,{4}6x,5x,
{6}4V68[2:1],{12}8,1x,,1,{4}2x,3x,
4-1[4:1],6x,5-8[4:1],3x,
4>8[4:1],8x<8[2:1]*V64[4:1],{2},{4}6h[1:1],
B8,B1,B2,
3h[1:1],E5,E6,E7,
8h[1:1],D2,D3,D4,
Ch[2:1],A6,A7,A8/B8/B1/A1/E1f,
{8}6h[4:1],5,4h[4:1],5,7-3[8:1],8,{4},{8}2h[4:1],
3,4h[4:1],3,1-4[8:1]*-6[8:1],8,{4},{8}8/7,
{16}3,2/4,,6,{8}5/7,{16}1,8,1,8,{24}2x,3,4,7x,6,5,
{8}Ch[4:3],{4},,,{8}8,
7/1,2/6,3/5,{16}4,6,,5w1b[16:1],{8}3,{4}5b,
{8}3/4-8[8:1],5,6b/4b,{16}7,7,,5,{8}6,4/3,2,
1/8-4[8:1],7,8b/2b,{16}3,3,,1,{8}2,8x/7x,6/5,
{16}3-8[8:1],4,2,1,{8}3bx,{16}6-1[8:1],5,7,8,{8}6bx,{16}3,4,{8}5/2bx-5[8:1],
{16}1,8,{8}2x/7,{16}6-1[8:1],7x,,3-5[16:1],{8}6/2x,3,{16}7,8,{8}2x/1x,
6/5-1[8:1],4,3b/5b,{16}2,2,,4,{8}3,5/6,7,
8/1-5[8:1],2,1b/7b,{16}6,6,,8,{8}7,1/2,3x/4x,
7/8,{16}3,5/2x-6[8:1],,4/3,5x,6/2,7,8,{8}1x-5[8:1],3/4,1x,
{32}8x,7,{16}6,3b,{32}7x,6,{16}5,2b,{32}6x,5,{16}4,1b-5-1b[4:1],7,8,4,{4}1b,
{8}7-3[8:1],6/5,8b/7b,{16}2,2,,5,{8}4,6bx/7bx,8,
1/2-6[8:1],3/8,1b/2b,{16}7,7,,4,{8}5v8[8:1],3bx/6bx,5/4,
2-6[8:1],4/3,2b/1b,{16}7,7,,4,{8}5,3bx/2bx,1,
8/7-3[8:1],6/1,7b/8b,{16}2,2,,5v6[16:1],{8}4v3[8:1],{4},{8}8h[8:1],
{16}2,3,{8}4/7bv6[8:1],{16}1,8,{8}7/3b-8[8:1],2,3b/4b,5,
1h[8:1],{16}7,6,{8}5/2bv3[8:1],{16}8,1,{8}2/6b-1[8:1],7,6b/5b,4,
{16}3bx/7b,6,5,8b/4bx,1,2,3bx/6b,7,8/1,2,{8}3x/4b,{16}6x,5x,7x,7x,
{32}1,2,{16}3,6b,{32}2,3,{16}4,7b,{32}3,4,{16}5,8b,{32}2,3,{16}4,7b,{32}1-5b[8:1],2,{16}3,{32}5w1b[8:9],6,{16}7,
{1}1b,
&inote_6=(167)
{4},,,,,,
{8},
4h[32:15]/8h[32:15],,,
{32}
37,26,15,48,
