&title=いただきバベル (Prod. ケンモチヒデフミ)
&artist=電音部; ケンモチヒデフミ; 秋奈
&first=0.02
&des=Dalcommlucy
&lv_5=13
&inote_5=(142)
{4}
,,,,
3-6[4:1],,7h[2:1],8>3[4:1],
,6,5-8[8:1],5qq2[2:1],,,1<6[4:1],
2h[8:3],,
{8}
5,3,4-1[8:1],,7,,
{4}
6-3[4:1],,2h[2:1],1<6[4:1],
,3,4-1[8:1],4pp7[2:1],,,8>3[4:1],
7h[8:3],,
{8}
4,6,5-8[8:1],,2,,
{8}
3h[8:1],1h[8:1],2h[8:1],8h[8:1],
1h[8:1],7h[8:1],8-3[8:1],,
7/8<5[8:1],,1/8pp2[8:1],,8/7,,
8,7,
6h[8:1],8h[8:1],7h[8:1],1h[8:1],
8h[8:1],2h[8:1],1-6[8:1],,
2/1>4[8:1],,8/1q6[4:1],,1/2,,
1,2,
3h[8:1],6h[8:1],4h[8:1],7h[8:1],
5h[8:1],8h[8:1],4h[8:1],1h[8:1],
3V14[4:1]*pp4[4:1],3,,,,,7h[4:1],,
5h[8:1],8h[8:1],4h[8:1],7h[8:1],
3h[8:1],6h[8:1],2h[8:1],5h[8:1],
1-7[8:1]*-6[8:1],,1-3[8:1]*-4[8:1],,1,,8b,,
7h[8:1],,7h[8:1]/1,2,7h[8:1]/3,,7h[8:1]/4,3,
6h[8:1]/2,,6h[8:1]/1,2,6h[8:1]/3-1[8:1],2,6h[8:1]/3,,
5h[8:1],,5h[8:1]/8,1,5h[8:1]/2,,5/2-6[8:1],1-7[8:1],
2-4[8:1],1-5[8:1],2-6[8:1],1,2,,8h[4:1],,
{16}
1,,7,8,7,,1,8,1,,6,8,6,,2,8,
2h[8:1],,3h[8:1],,4h[8:1],,5h[8:1],,
6-8[8:1],,,,1,,1,,
8,,2,1,2,,8,1,8,,3,1,3,,7,1,
7h[8:1],,6h[8:1],,5h[8:1],,4h[8:1],,
3-1[8:1],,,,8,,8,,
1,7,2,6,3h[8:1],,4h[8:1],,5h[8:1],,6h[8:1],,8h[8:1],,7,8,
6h[8:1],,5,6,4,5,3,4,2>5[8:1],,,8,2,,7,,
6pp1[2:1],,,,,,,,4,,,3,,,2w6[4:1],,,,,,,,,,4b/8b,,,,,,,,
{16}
1h[8:1],,,2h[8:1]/8h[8:1],,,7/3V52[4:1],,,,5,,7,,,,
8h[8:1],,,7h[8:1]/1h[8:1],,,2/6V47[4:1],,,,4,,2,,,,
1h[8:1],,,2h[8:1]/8h[8:1],,,3/7,,4,,5,,6,,7,,
8h[8:1],,,7h[8:1]/1h[8:1],,,2/6pp4[4:1],,,,4,,3,,2,,
1h[8:1],,,4h[8:1]/2h[8:1],,,5/3V15[4:1],,,,5,,6,,7,,
8h[8:1],,,5h[8:1]/7h[8:1],,,4/6V84[4:1],,,,4,,3,,2,,
1h[8:1],,,4h[8:1]/2h[8:1],,,5/3pp2[4:1],,,,6,,,7,,,
8h[8:3],,,,2-7[8:1],,,,2b/6,,,,8b,,,,
1h[8:1],,7,,2h[8:1],,7,,3h[8:1],,7,3,5,,2/6,,
8h[8:1],,2,,7h[8:1],,2,,6h[8:1],,2,6,4,,7/3,,
1h[8:1],,8,,3h[8:1],,8,,4h[8:1],,8,4,6,,3/7,,
8h[8:1],,1,,6h[8:1],,1,,5h[8:1],,1,5,3,,6/2,,
1h[8:1],,8,,3h[8:1],,8,,5h[8:1],,8,5,6,,4/7,,
8h[8:1],,1,,6h[8:1],,1,,4h[8:1],,1,4,3,6h[16:3],,,
4h[8:1],,5,4,7,2,6,3,
8,1,6,5,8,1,4,3,
5-8[8:1],3,,,5,2,,,
{32}
1,8,7,6,5,4,3,2,1-6[8:1],,,,,,,,
{16}
1b>4[8:1],5,,5,1,,8,,7-4[8:1],,6,5,7-1[8:1],,2,,
7<4[8:1],4,,4,7,,1,,2-5[8:1],,3,4,2-8[8:1],,7,,
2>5[8:1],5,,5,2,,8,,7-3[8:1],,5,3,7,,1h[8:1],,
8,1,7,3,5,,4/6,,1/2,,3/5,,7/8-3[8:1],,,,
8<5[8:1],4,,4,8,,1,,2-5[8:1],,3,4,2-8[8:1],,7,,
2>5[8:1],5,,5,2,,8,,7-4[8:1],,6,5,7-1[8:1],,2,,
7<4[8:1],4,,4,7,,1,,2-6[8:1],,4,6,2,,8h[8:1],,
1,8,2,6,4,,5/3,,8,7,1,6,2,5,3,4,
2bv5[8:1],1,,1,2,,7,,6v1[8:1],5,,5,6,,3,,
2,8,4,7,1,5,3,4,2,6,5,7,1h[8:1],,8,,
7v4[8:1],8,,8,7,,2,,3v8[8:1],4,,4,3,,6,,
7,1,8,1,6,1,8,1,5,1,8,1,4,,2/6,,
3v8[8:1],4,,4,3,,6,,7v4[8:1],8,,8,7,,2,,
3,5,1,6,4,8,2,1,3,7,8,6,4h[8:1],,5,,
6v1[8:1],5,,5,6,,3,,2v5[8:1],1,,1,2,,7,,
6,4,8,3,5,1,7,8,5,4,1,2,8-3[8:1],,7,,
{4}
8b/4h[4:1],3h[4:1],2h[4:1],
1h[4:1],8h[4:1],7h[4:1],
{16}
6-1[8:1],,8,8,6b,,,,
