&title=愛♡スクリ~ム!
&artist=AiScReam
&first=0
&des=おめめ
&lv_5=13+
&inote_5=(132)
{2},{8},
{4}4,3,4-7[2:1],A2,{3}3-8[2:1],,{12},
{4}7-4[2:1],1,2,3,
{4}4/5-8[2:1],E3,
{4}1hx[4:1],{8},1x/7x,{4}2x/6x,
{8}4/6,,{24}7h[2:1]/B1,C,B4,,,,E4,E3,E2,,,,B1,C,B4,,,,
{8}8x,8x,{24}2h[2:1]/B8,C,B5,,,,E6,E7,E8,,,,B8,C,B5,,,,
{8}6/2,,{24}7h[2:1]/B1,C,B4,,,,E4,E3,E2,,,,1hx[4:1],,,,,,
{4}5bx,{8}3hbx[4:1]/8hbx[4:1],,,{8}4bx/7hbx[4:1],,{16}A6,A5,A4,,,,
{4}3h[4:1]/4,{16},4,3h[8:1],,C,,,
{16}3,4h[16:9],,,,E3,,,,,3,4h[8:1],,3,,
{8}5h[4:1],2,2h[2:1],,D2,D3,D4,D5,,
{8}7,7h[2:1],,D8,D7,D6,D5,,
{4}4,6h[4:1]/5,{16},5,6h[8:1],,C,,,
{16}6,5h[16:9],,,,E7,,,,,6,5h[8:1],,6,,
{8}4h[4:1],7,7h[2:1],,D8,D7,D6,D5,,
{8}6/4,6h[2:1]/4,,E8,E7,E6,E5,,
{8}3h[4:1]/4,,4,5,{16}3,4,3h[8:1],,C,,,
{16}6,6h[4:1],,,,5,,,,6,5,6h[8:1],,C,,,,
{4}2<6[4:1],6<3[4:1],4,
{8}6,6<3[16:5],,4,3>6[4:1],,4h[4:1],,,,
{8}3/4h[8:1],,2h[8:1]/5,,{16}3,{16}4,3h[8:1],,C,,,,
{8}6/5h[8:1],,7h[8:1]/4,,{16}6,{16}5,6h[8:1],,C,,,,
{8}3/4>8[4:1],,8<4[4:1],,C,,{8}3-6[8:1],3,3b/6-3[8:1],,6/4bv1[8:1]*-8[8:1],,,E1f,
{16}7x-3[8:1]b,2,6,3,
{4}7bp6[4:5]*>6[4:5]`Cf,,,,,,,
{4}5-8[8:1]b/4-1[8:1]b,4b>5[4:5]/5b<4[4:5]`E5f,,,,,,,
{4}8w4[8:1]b/3,
{8}8b`Cf,,
{8}3/5h[8:1],2,4h[8:1]/6,7,3/5h[8:1],2,
{8}7/1h[8:1],6,8h[8:1]/2,3,7/1h[8:1],6,8h[8:1]/2,3,
{16}4,3,4,3,5,2,5,2,6,1,6,1,7,8,7h[16:6],,C,,,,C,,,
{16}4h[384:1],5h[384:1],,5h[384:1],4h[384:1],Cf,,,,
{32}A8/A7,B8/B7,Cf,E4,,,,,{32}A1/A2,B1/B2,Cf,E6,,,,,{32}A1/A8,B1/B8,C,E5,,,,,
{8}5^8[8:1],2^5[8:1],5qq5[4:1],2,8^5pp5[8:3]b,,,,4,,
{32}A4/A3,E3/B4,E2/Cf,B8/A1,,,,,{32}A1/A8,E8/B1,E7/Cf,B5/A6,,,,,{32}A5/A4,E4/B5,E3/C,B1/A2,,,,,
{8}7>4[4:1],6,5,,7>4[4:1]b,,6,,7,,
{32}A1/A7,A6f,A5,A4,,,,,{32}A8/A2,A3f,A4,A5,,,,,{32}A1/A7,A6,A5,A4,,,,,
{8}1>4[8:1],6<1[8:1],1qq5[4:1],6,3,,4^7[8:1]*-2[8:1],,4b,,
{8}8h[4:1],,1,2,3^6[8:1]/5,2,5bxpp4[4:2]/3bxqq4[4:2],,
{8},,,,,{16}5,3,6,2,7,1,
{8}8b<4[8:1],,3<7[8:1],1,8<4[8:1],,3q7[8:1],1,8<4[8:1],,
{8}3<7[8:1],1,8V64[8:1]b,,8b,2bx,
{8}2pp5[8:3],2/4,5,6,7,8-3[8:1]*-5[8:1],1/7,8b,,
{8}4-8[8:1],2/6,4,{16}4x-8[8:1]b,3,2,1h[16:3],4b,,,,
{8}1b>5[8:1],,6>2[8:1],8,1>5[8:1],,6p2[8:1],8,1>5[8:1],,
{8}6>2[8:1],8,1V35[8:1]b,,1b,7bx,
{8}7qq4[8:3],7/5,4,3,2,1-6[8:1]*-4[8:1],2/8,1b,,
{8}5-1[8:1],6/4,5,{16}5x-1[8:1]b,6,7,8h[16:3],{1}5b<4[8:9]`Cf,{4},,,
{16}5h[384:1],5h[384:1],4h[384:1],,4h[384:1],5h[384:1],3h[384:1],,
{4}7^2[8:1],3-8[8:1],
{8}3bx>7v5[1:1]/2x,,,,6,6,6,6,{4}6h[4:3],,
{8}E3,C,E7,,4/7h[16:7],,{16},8xp1[2:1]b,1x,2x,{4},,,
{16},7,2,6,3,,,,5-8[8:1]/1^4[8:1],,,,
{8}1bx/5bx<2v4[1:1],,,,5,5,5,5,5,,,,
{16}B7,B2,B6,B3,B5,,B4,,C,,,
{16}4h[16:3],,5x,6x,7x,{4}8xp1[2:1]b,,,{8},
{16}3,4,3>7[8:1],,,,5-8[8:1],,,,
{8}5bx<2v4[1:1],,,,5,5,5,5,{4}5,{8},,
{8}4qq4[4:1],,4pp4[4:1],,,,{16},
{16}8xp1[2:1]b,7x,6x,{4},,,{8},
{8}1/8,1/8,,5-1[8:1]/4-2[8:1],,
{8}4bx/5bx<2v4[1:1],,,,5,5,5,5,5,,,,
{8}E6/E5/E4,E7/E3,E1/E8/E2,,1/8,,7^1-7[8:3],7-4-1[8:2]b,,,,,
{8}5x,5x,{16}5,2,5,1h[16:13],,,,,{4}Chf[4:2],,,
{32}A1/A2,B1/B2,Cf,E6,,,,,{32}A8/A7,B8/B7,Cf,E4,,,,,{32}A8/A1,B8/B1,C,E5,,,,,
{8}4^1[8:1],7^4[8:1],4qq5[4:1],7,1^4qq5[8:3]b,,,,6,,
{32}A5/A6,E7/B5,E8/Cf,B1/A8,,,,,{32}A8/A1,E2/B8,E3/Cf,B4/A3,,,,,{32}A4/A5,E6/B4,E7/C,B8/A7,,,,,
{8}2^8-5[4:1],3,4,,2^8-5[4:1]b,,3,,2,,
{32}A8/A2,A3f,A4,A5,,,,,{32}A1/A7,A6f,A5,A4,,,,,{32}A8/A2,A3,A4,A5,,,,,
{8}8^3[8:1],3-8[8:1],8pp5[4:1],4,4,,4^7[8:1]*-2[8:1],,4b,,
{8}8h[4:1],,4,7/2,8v3[8:1]*v5[8:1],1/7,8bp1[4:2]b*<1[4:2]b,,
{8},,,,,{16}7,8,7,8,7,8,
{8}8b<4[8:1],,3q7[8:1],2,1<5[8:1],,3q8[8:1],1,8p4[8:1],,
{8}3<7[8:1],1,8V64[8:1]b,,8b,2bx,
{8}2pp6[8:3],2/4,5,6,7,8<5[8:1]*p4[8:1],1/7,8b,,
{8}4q8[8:1],2/6,4,{16}4x^7[8:1]b,3,2,1h[16:3],4b,,,,
{8}8b<4[8:1],,3q7[8:1],2,1<5[8:1],,3q8[8:1],1,8p4[8:1],,
{8}3<7[8:1],1,8V64[8:1]b,,8b,2bx,
{8}2pp6[8:3],2/4,5,6,7,8w4[8:1],1/7,8b,,
{8}4^7[8:1],2/6,4,{16}4x-8[8:1]b,3,2,1,4b,,,,
{4}4^2[8:1]/5p1[8:1],4v6[8:1]/5,4q8[8:1]/5^7[8:1],4/5v3[8:1],4^2[8:1]/5p1[8:1],
{4}4v6[8:1]/5,4q8[8:1]/5^7[8:1],4/5v3[8:1],4^2[8:1]/5p1[8:1],4q5[4:1]/5,
{8}6h[8:1],,6<3[4:1],,6qq4[8:1],,,,
{8}4^7[8:1]/3q8[8:1],,3b/4b,,1h[4:1],,
{8}8<4[8:1],8,1,,8p4[8:1],7,1,,
{8}8pp2[8:1],6,2qq8[8:1]*>5[8:1],,2b,,
{8}5x^7[8:1],,8p4[8:1],3,2,,
{8}1b^7-1[8:3],
{4}1-4-7[4:1]b,,
{8},
{16}6x,5x,4x,3x,
{16}2,1,8,7,
{2}6bpp5[2:1]/2b,5xqq5[2:1],2xqq4[2:1],4xpp4[2:1],
{2}7xpp5[2:1],5xqq5[8:3],1x<5pp5[8:6]b*<5qq5[8:6],
{2},{4},{2}4xpp4[2:1],4xqq4[2:1],4xqq4[2:1]*pp4[2:1],,
{2}6xpp4[2:1],4xqq4[2:1],4xpp4[2:1]*qq4[2:1]b,,{8},
{1},E
&inote_6=(132)
{1},,
