&title=The First Step
&artist=Yooh
&first=-0.25
&des=victor Y
&lv_5=12+
&inote_5=(132)
{1},
{4}5>1[8:5]/6,6,6,6,68,61,62,6-4[12:1]/3,36,3/4V68[8:5],3,3,3,3,5-1[12:1],7,
{4}1qq5[8:5]/2,2,2,2,24,25,26,2-8[12:1]/7,72,7/8pp3[8:4],7,7,8bz4[4:2],,{8}1,2,3,,
{8}64,4,47,48,47,4,46,{24}3,,7,{24}3,,6,3,,,{8}35,3,34,2h[4:1],{16}8,7,6,,
{8}1-5[12:1],8-4[12:1],1,8,2-5[12:1],7-4[12:1],2-8[12:1],7,2^5[12:1],6,2-6[12:1]/5,6,2/8w4[12:1],7,8b,,
{8}3-8[12:1]/4,2,34,7,28,{24}3,,6,4,,4,7,,,3,,,25,,1,4,,4,2,,,36,,,8,,5,7,,8,5,,,
{8}6-1[12:1]/5,7,65,2,71,{24}6,,3,5,,5,2,,,6,,,74,,8,4,,3,8,,,2v5[12:1]/7-4[12:1],,,1,8,,2b/7b,,,,,,
{8}3-6[12:1]/6,2,37,8,48,{24}2,,5,3,,3,6,,,2,,,14,,8,3,,3,1,,,25,,,7,,4,6,,7,4,,,
{8}8-4[12:1]/3,7,28,3,53,{24}47,,2,1,,4,7,,,{4}1bs5[8:3],,{8},,4>1[12:1]/5,3,{48}45,6,7,8,,,,,,,,,{8}2-5[12:1],
{8}1,82,{24}7,,6,4^2[12:1],,3,5,,5,{8}4-1[12:1],6,4-8[12:1],7,4-2[12:1],6,54,,
{8}5-1[12:1]/4,6,53,2,2h[8:1]/7,{24}6,,4,5-1[12:1],,6,3,,,5-8[12:1],,,{8}4,5^3[12:1],3,5w1[12:1],1,5b,,
{8}6V48[4:1]/4,3,2/6,1,2h[8:1],{24}1,,1,2,,4,2h[8:1],,,5,,,6,,4,6h[12:1],,8,7,,,1,,4,3,,1,6,,4,5h[12:1],,,
{24}4-7[12:1],3,2,1,,,4,,,8,,,17,,3,4,,6,5,,7,8,,,{4}1bs5[8:5]/8b,8,8-4[12:1],8,3bq6[8:11]/7bq2[8:11],,,,,,,,
{8}56,56,56,,34,34,34,,56,6,56,34,3,34,4b/5b,,
{8}56,56,56,,34,34,34,,56,6,56,34,3,34,45,,
{8}56,6,56,,34,4,{24}24,1,8,7,6,5z1[24:16],{4}4s8[8:5],,,,
{8}3-1[12:1]/5,,37,6,3-1[12:1]/5,6,37,{24},,8,3-1[12:1],,,5,,,37,,,6,,,3-1[12:1],,,4,,,{16}37,6,5h[4:1],,2,3,4,,
{8}6-8[12:1]/2,3,4/6-1[12:1],5,36,{24}4,,2,6-8[12:1],,,3,,,46,,,2,,,1w5[12:1]/5,,,37,,,{8}1b,,
{8}3/8b,3,3,3,3,3,3,3,3/7b,7,7,7,7,7,7,7,7/4b,4,4,4,4/6b,6,6,6,5-1[12:1]/2,6,2-4[12:1],3,2/5-1[12:1],,8,8,
{48}1b/8b,27,36,{16}45,,,{24}7-5[12:1],,,3,,,{24}7,,1,,,2-4[12:1]/4,,,4,1,,2,5,,7,,,5-1[12:1]/8,,,7,4,,5,8,,7,,,6,,,1v3[16:1]/5v7[16:1],2,
,,1b/5b,,,,,,
{24}1v4[12:1],,,6,,,{24}17,,6,,,6-4[12:1]/4,,,4,7,,6,3,,1,,,3-8[12:1]/8,,,1,2,,3,7,,6,6,,,5w1[12:1],,7/3,,
,,5b,,,,,,
{24}6-8[12:1],,,2,,,{24}6,,4,,,3-1[12:1]/1,,,1,4,,3,8,,6,,,8-4[12:1]/5,,,6,1,,8,5,,6,,,7,,,4v1[16:1]/8-5[16:1],3,,,4b/8b,,,,,,
{24}2pp4[12:1]/4,,,6,,,{24}12,,6,,,6/4,,,4,7,,,{4}1,1,{24}4,5,,5,4,,3,,,3,,,{32}3/6,7,8,1,2,3,4,5,{8}6/1-6[12:1],2,{24}1-4[12:1],,8,8,,,1^6[12:1],,7,7,,,{8}5-3[12:1],5-8[12:1],5-2[12:1],5^7[12:1],5-1[12:1],5,5,,
7v4[12:1]/2,8,{8}3v8[12:1]/7,1,{24}5-1[12:1]/3,,6,6,,,5/2-7[12:1],,3,3,,,{8}2/4-6[12:1],4-2[12:1],4,4,7-3[12:1],{16}1,2,3/7b,,,,
{8}6V82[16:3]/4,2,3/6,4,5h[8:1],{24}1,,8,5,,4,45,,,53,,,25,,4,1,,1,18,,,16,,2,7,,6,8,,5,54,,,
{24}5-2[12:1],6,7,8,,,5,,,1,,,17,,3,4,,1,8,,5,6,,,
{24}1bs5[8:5]/8b,,,7,,1,,,8,7,,8,7b-3[12:1],,,,,,7b,
