&title=ロッキンピンクモンスター
&artist=豚乙女
&des=1就
&wholebpm=250
&first=0
&lv_1=3
&lv_2=5
&lv_3=8
&lv_4=11
&lv_5=12+
&lv_6=13
&inote_1=
(250)
{1},
,,,,
,,,,
1,2,3,4,5,6,7,8b,{2}
2,,2,,3,3,3,,5,,5,,6,6,6,,
7,,7,,8,8,8,,2,,2,,3,3,3,,
4,,4,,5,,5,,6,,7,,8,,1,,
8,,8,,1,,1,,3,3,3,,5,5,5b,,
4,4,4,,3,3,3,,2,2,2,,1,1,8,8,
7,7,7,,6,6,6,,5,5,5,,4,4,4b,,
3-8[1:1],,,,7-4[1:1],,,,
2-5[1:1],,,,6-1[1:1],,,,
2h[2:3],,,,1h[2:3],,,,7h[2:3],,,,8h[2:3],,,,
1,1,1,,2,2,2,,3,3,3,,4,4,4,,
5,,5,,4,,4,,3b,3b,2b,2b,1b,1h[1:1],,,
8,,8,,1,,1,,7,7,7,,6,6,6b,,
5,5,5,,4,4,4,,3,3,3,,2,2,1,1,
8,8,8,,7,7,7,,6,6,6,,5,5,5b,,
3-8[1:1],,,,7-4[1:1],,,,
2-5[1:1],,,,6-1[1:1],,,,
18,,18,,18,,18,,{1}1b,,,,E
&inote_2=
(250){1},
,,,,
,,,,{2}
1,1,1,,2,,2,,8,8,8,,7,,7b,,
6,,6,,5,5,5,,4,,4,,3,3,3,,
2,,2,,1,1,1,,8,,8,,7,7,7,,
56,,56,,56,,6,,4,4,4,,6,6,7,7,
78,,78,,78,,7,,1,1,8,8,1,1,1b,,
2,2,2,,3,3,3,,6,6,6,,7,7,1,1,
8,8,8,,7,7,7,,3,3,3,,2,2,1/2b,,
7-4[1:1],,,,3-8[1:1],,,,6-1[1:1],,,,2-5[1:1],,,,
3h[2:3]/4h[2:3],,,,5h[2:3]/6h[2:3],,,,
7h[2:3]/8h[2:3],,,,1h[2:3]/2h[2:3],,,,
8,8,8,,7,7,7,,3,3,3,,2,2,2,,
34,,34,,34,,3,,2b,1b,8b,7b,6b,5b,4h[2:1],,
12,,12,,12,,2,,8,8,1,1,8,8,1b,1,
7,7,7,,6,6,6,,3,3,3,,2,2,8,8,
1,1,1,,2,2,2,,6,6,6,,7,7,7b/8,,
6-1[1:1],,,,2-5[1:1],,,,7-4[1:1],,,,3-8[1:1],,,,
7h[4:3],,1h[4:3],,8h[4:3],,2h[4:3],,{1}
8bV64[4:7],,,,E
&inote_3=
(250)
{1},{4}
4/5p2[4:10],,,,,,,,
,,,,,,,,
5/4q7[4:10],,,,,,,,
,,,,,,,,
1,1,8,8,2,7,2,7,4h[4:3]/6h[4:3],,,,3h[4:3]/5h[4:3],,,,
8,8,1,1,7,2,7,2,3h[4:3]/5h[4:3],,,,2b,,,,
8,8,8,,7,7,7,,1,,12,,1,,1,,
6,6,6,,5,5,5,,4,,34,,4,,4b,,
1,1,1,,2,2,2,,8,,78,,8,,8,,
3,3,3,,4,4,4,,5,,56,,5,,5b,,
1-3[2:1],,,,1-7[2:1],,,,1-4[2:1],,,,8h[8:5],,,,
7,,7,,8,,,,6,,6,,56,,,,
1-4[2:1],,,,1-6[2:1],,,,1-5[2:1],,,,7h[8:5],,,,
5,5,4,4,3,6,3,6,2,,8,,17,17,1b/7b,{8},8,
,,2,,2,,,8,
,,2,,2,,,8,
,,2,,2,,,7,
,,1,,1,,,1,
,,7,,7,,,1,
,,7,,8,,8,,
1b,,,2b,,,3b,,
,4b,,,5,,5,,
,,3,,3,,,5,
,,3,,3,,,5,
,,3,,3,,,6,
,,4,,4,,,4,
,,6,,6,,,4,
,,6,,6,,,4,
,,6,,7,,8,,
1b,,,1,,,,1b,
,,2,,3,,4,,
5,,6,,7,,,8b,
,,1,,2,,3,,
4,,5,,6,,,7b,
,,8,,1,,2,,
3,,4,,5,,,6b,
,,7,,8,,1,,
2,,3,,4,,4,,
6h[8:3],,,5,,,7h[1:1],,,5,,,5,,5,,
3h[8:3],,,4,,,2h[1:1],,,4,,,4,,
4,,
6h[8:3],,,4,,,5h[1:1],,,2,,,2,,2,,
3h[8:3],,,5,,,4h[1:1],,,7,,,7,,7,,{4}
1,1,1,,2,2,2,,8,,78,,8,,78,,
3,3,3,,4,4,4,,5,,56,,5,,6/5b,,
8-6[2:1],,,,8-2[2:1],,,,8-5[2:1],,,,1h[8:5],,,,
8b,8,1b,1,7b,7,2b,2,6b,6,3b,3,5,4,5,4,
8-5[2:1],,,,8-3[2:1],,,,8-4[2:1],,,,2h[8:5],,,,
4,4,5,5,6,3,6,3,7,,1,,28,28,2b/8b,{8},1,
,,7,,7,,1,1,
,,7,,7,,1,1,
,,7,,7,,3,3,
,,8,,8,,8,8,
,,3,,3,,8,8,
,,3,,3,,3,,
8b,,,7b,,,6b,,
,5b,,,4,,4,,
,,6,,6,,4,4,
,,6,,6,,4,4,
,,6,,6,,2,2,
,,5,,5,,5,5,
,,2,,2,,5,5,
,,2,,2,,5,5,
,,2,,2,,1,,
8b,,,8,,,,8b,
,,7,,6,,5,,
4,,3,,2,,,1b,
,,8,,7,,6,,
5,,4,,3,,,2b,
,,1,,8,,7,,
6,,5,,4,,,3b,
,,2,,1,,8,,
7,,6,,5,,5,,
4,,,4,,,4,,
6,,,6,,,6,,
2,,,2,,,2,,
8,,,8,,,8,,
{1}1bV36[4:7]*V74[4:7],,,,E
&inote_4=
(250)
{1},{4}
6h[4:12]/5<3[4:11],,,,,,,,
,,,,,,4h[8:1],5h[8:1],
3h[4:12]/4>6[4:11],,,,,,,,
,,,,,,1h[8:1],1h[8:1],{8}
8,,17,,2,4,2,,6,,57,,8,2,8,,
1-4[4:1],,6,6,,7,7,,8-5[4:1],,3,3,,2,2,,
1,,28,,7,5,7,,3,,24,,1,7,1,,
8<4[8:3],,3,3,,2,2,,1b,,,,,,,,
5,,45,,6,6-8[4:1],,1,,2,2,,3,,46,,
7,7h[8:9],,6,,8,,5,,1,1V37[8:3],,,,,,
,,45,,3,3-1[4:1],,8,,7,7,,6,,35,,
2,2h[8:9],,3,,1,,4,,8,8-6[4:1]*-2[4:1],,,,,,
5,,45,,6,6^3[8:2],,2,,1,1,,8,,56,,
3,3h[8:9],,2,,4,,1,,5,5V37[8:3],,,,,,
,,45,,3,3^6[8:2],,7,,8,8,,1,,34,,
6,6h[8:9],,7,,5,,8,,4,4-1[4:1]*-7[4:1],,,,,,
7V51[8:5],,,1,,,,,
2V48[8:5],,,8,,,,,
7V51[8:5],,,1,,,,,
3,3-8[8:1],,7-4[8:1],,,,,
1h[4:1]/2h[4:1],,,,1h[4:1]/2h[4:1],,,,
8,1,8,1,,7,5,7,4,6,4,6,3,5,3,5,2,4,2,4,1,,,,
6V84[8:4],,,4,,,,,
3V15[8:5],,,5,,,,,
6V84[8:4],,,4,,,,,
2,2-5[8:1],,8-3[8:1],,,,,
4,5,4,5,4,5,4,5,3,6,3,6,2,7,2,7,1,1,,18,,18,,8,
8,,36,,27,8,1,8,
,4,5,,57,,6,5,
,5,4,,24,,3,4,
,4,5,,57,,7,8,
,8,1,,6,4,6,2,
,8,1,,13,,2,1,
,1,8,,3,7,3,7,
2b,1,2,8b,3,8,4b,7,4,6b,5,6,4b,7,2,5,
,5,4,,24,,3,4,
,4,5,,57,,6,5,
,5,4,,24,,2,1,
,1,8,,3,5,3,7,
,1,8,,68,,7,8,
,8,1,,6,5,6,47,
,18,18,,47,,36,,
2-5[8:1]/5-8[8:1],,,,,,,1b,
,6,6,,45,,57,,
35,,58,,2h[4:1]/5h[4:1],,,8b,
,3,3,,45,,24,,
46,,14,,4h[4:1]/7h[4:1],,,1b,
,6,6,,45,,57,,
35,,58,,2h[4:1]/5h[4:1],,,8b,
,3,3,,45,,24,,
46,,14,,47,6,5,,
7h[8:3],,,5,,,3h[2:2],,,1,,,8,,7,,
2h[8:3]/6,,,4,,,7h[2:2],,,8,,,1,,2,,
3h[8:3]/4,,,2,,,7h[2:2]/8,,,6,,,4,,3,,
6h[8:3]/5,,,7,,,2h[2:2]/1,,,3,,,5,,6,,
5,,45,,3,3V57[8:3],,7,,8,8,,1,,35,,
6,6h[8:9],,7,,5,,8,,4,4V62[8:3],,,,,,
,,45,,6,6V42[8:3],,2,,1,1,,8,,46,,
3,3h[8:9],,2,,4,,1,,5,5-7[4:1]*-3[4:1],,,,,,
8V26[8:4],,,6,,,,,
3V15[8:4],,,5,,,,,
6V48[8:4],,,8,,,,,
2,2-5[8:1],,6-1[8:1],,,,,
4b,5,2,2,5b,4,7,7,4b,5,2,2,5b,4,7,7,
4b,5,2,2,5b,4,7,7,2,8,2,8,3,1,3,,
4V62[8:4],,,2,,,,,
7V15[8:4],,,5,,,,,
2V48[8:4],,,8,,,,,
7,7-4[8:1],,3-8[8:1],,,,,
5,4,5,4,5,4,5,4,6,3,6,3,7,2,7,2,8,8,,18,,18,,1,
1,,36,,27,1,8,1,
,5,4,,24,,3,4,
,4,5,,57,,6,5,
,5,4,,24,,2,1,
,1,8,,3,5,3,7,
,1,8,,68,,7,8,
,8,1,,6,2,6,2,
7b,8,7,1b,6,1,5b,2,5,3b,4,3,5b,2,4,7,
,4,5,,57,,6,5,
,5,4,,24,,3,4,
,4,5,,57,,7,8,
,8,1,,6,4,6,2,
,8,1,,13,,2,1,
,1,8,,3,4,3,25,
,18,18,,25,,36,,
4-1[8:1]/7-4[8:1],,,,,,,8b,
,4,8,4,8,4,7,3,
7,3,6,2,6,2,5,1b,
,8,4,8,4,8,3,7,
3,7,2,6,2,6,4,8b,
,5,1,5,1,5,2,6,
2,6,3,7,3,7,4,8b,
,1,5,1,5,1,6,2,
6,2,7,3,7,3,5,,
46,,,46,,,46,,25,,,25,,,25,,
47,,,47,,,47,,28,,,28,,,28,,{1}
1bV38[4:7]/7bV58[4:7],,,,E
&inote_5=
(250)
{1},{4}
5h[2:7]/4-6[8:1],,7-3[8:1],,4-8[8:1],,1-3[8:1],,
4-6[8:1],,7-3[8:1],,4-8[8:1],,{8}1,5,1,5,{4}
1h[4:13]/8-2[8:1],,3-7[8:1],,8-4[8:1],,5-7[8:1],,
8-2[8:1],,3-7[8:1],,8-4[8:1],,3b/7h[8:1],5b/1h[8:1],{8}
6,,68,,6,5,46,,6,,26,,6,5,46,,
7-4[8:1],,2-5[8:1],2,,8-5[8:1],8,,
1-4[8:1],,7-3[8:1],7,,2,2,,
3,,13,,3,4,35,,3,,37,,3,4,35,,
2-5[8:1],,7-4[8:1],7,,1-5[8:1],1,,
8b,,3,3,,6,6,,
4,,24,,1,1qq6[8:7],,3,
,4,4,,3,,2,,
1,8-6[8:1],,5-1[8:1],,7-4[8:1],,2,
,3,3-5[8:1],,38,,6,,
5,,57,,8,8pp3[8:7],,6,
,5,5,,6,,7,,
8,1-3[8:1],,4-8[8:1],,2-5[8:1],,7,
,6,6-4[8:1],,2b/6b,,,,
3,,13,,8,8,,2-6[8:1]/6,
,8-5[8:1],8,,3-8[8:1],,7,,
15,2/6-4[8:1],,3-1[8:1],,8-4[8:1],,2,
,37,3-8[8:1]/7-4[8:1],,37,,26,,
,,57,,1,1,,7-3[8:1]/3,
,1-4[8:1],1,,6-1[8:1],,2,,
48,7/3-5[8:1],,6-8[8:1],,1-5[8:1],,7,
,26,2-5[8:1]/6-1[8:1],,2b/6b,,,,
5^7[8:1],,,8z4[8:3],,,,,
3^1[8:1],,,8s4[8:3],,,,,
5^7[8:1],,,8z4[8:3],,,,,
3,3,,2-4[8:1]/4-8[8:1],,24,,,
7h[4:1]/1-6[8:1],,,,2h[4:1]/8-3[8:1],,,,1,6,8,7,,5,6,5,
7,8,6,1,5,2,4,3,1,2,8,3,7h[4:1],,,,
4^2[8:1],,,1s5[8:3],,,,,
6^8[8:1],,,1z5[8:3],,,,,
4^2[8:1],,,1s5[8:3],,,,,
6,6,,7-5[8:1]/5-1[8:1],,57,,,
3,4,1,6,3,4,1,6,4,5,2,7,4,5,1,8,
2,2b,,34,,78,,25,
2b/5b,,34,,47,8,8b,2q6[8:1],
,7^4[8:1],7,,1-5[8:1],,7p3[8:1],7,
,2^5[8:1],2,,8-4[8:1],,2q6[8:1],2,
,7^4[8:1],7,,1-5[8:1],,7p3[8:1],7,
,2^5[8:1],2,,6,6,2,8p4[8:1],
,1^4[8:1],1,,7-3[8:1],,1q5[8:1],1,
,8^5[8:1],8,,2,7,2,7,
3b,1,3,6b,8,6,2b,3,
2,7b,6,7,4b,5,1,8p4[8:1],
,2^5[8:1],2,,7-3[8:1],,1q5[8:1],1,
,7^4[8:1],7,,2-6[8:1],,8p4[8:1],8,
,2^5[8:1],2,,7-3[8:1],,1q5[8:1],1,
,7^4[8:1],7,,3,3,5,1q5[8:1],
,8^5[8:1],8,,3-7[8:1],,8p4[8:1],8,
,1^4[8:1],1,,6,6,2,38,
,7,7,,6^4[8:1]/5v8[8:1],,,,
7-4[8:1],,,2-5[8:1],,,,8b,
,2,4,2,5,2,6,2,
7,2,8,2,1,2,1,3b/8b,
,7,5,7,4,7,3,7,
2,7,1,7,8,7,8,1b/6b,
,3,1,3,8,3,7,3,
6,3,5,3,4,3,4,2b/5b,
,6,8,6,1,6,2,6,
3,6,4,6,5,6,56,,
8>5[4:3]/7,,,6,,,5qq7[8:5],,,7,,,8,,8,,
1<4[4:3]/2,,,3,,,4pp2[8:5],,,2,,,1,,1,,
8pp5[4:3]/7,,,6,,,5pp3[8:5],,,8,,,1,,1,,
1qq4[4:3]/2,,,3,,,4qq6[8:5],,,1,,,8,,8,,
56,,78,,2,2,,7-3[8:1]/3,
,1-4[8:1],1,,6-1[8:1],,2,,
48,7-4[8:1]/3,,1-5[8:1],,6-1[8:1],,2,
,37,3-8[8:1]/7-4[8:1],,37,,26,,
,,34,,7,7,,2-6[8:1]/6,
,8-5[8:1],8,,3-8[8:1],,7,,
15,2-5[8:1]/6,,8-4[8:1],,3-8[8:1],,7,
,26,2-5[8:1]/6-1[8:1],,2b/6b,,,,
6^8[8:1],,,1z5[8:3],,,,,
4^2[8:1],,,1s5[8:3],,,,,
6^8[8:1],,,1z5[8:3],,,,,
4,4,,2-6[8:1]/5-8[8:1],,25,,,
{12}1b,2,3,4,1,,{12}1b,8,7,6,1,,
{12}1b,2,3,4,8,,{12}8b,7,6,5,8,,
{12}8b,1,2,3,8,,{12}8b,7,6,5,1,,{8}
5,3,6,4,7,5,8h[4:1],,
3^1[8:1],,,8s4[8:3],,,,,
5^7[8:1],,,8z4[8:3],,,,,
3^1[8:1],,,8s4[8:3],,,,,
5,5,,7-3[8:1]/4-1[8:1],,74,,,
6,5,8,3,6,5,8,3,5,4,7,2,5,4,8,1,
7,7b,,34,,12,,47,
4b/7b,,56,,25,1,1b,7p3[8:1],
,8q4[8:1],8,,5^8[8:1],,2q6[8:1],2,
,1p5[8:1],1,,4^1[8:1],,7p3[8:1],7,
,8q4[8:1],8,,5^8[8:1],,2q6[8:1],2,
,1p5[8:1],1,,4,4,6,2q6[8:1],
,1v4[8:1],1,,3-8[8:1],,7p3[8:1],7,
,8v5[8:1],8,,7,3,7,3,
6b,8,6,3b,1,3,7b,6,7,2b,3,2,5b,4,7,2q6[8:1],
,1p5[8:1],1,,4^1[8:1],,7p3[8:1],7,
,8q4[8:1],8,,5^8[8:1],,2q6[8:1],2,
,1p5[8:1],1,,4^1[8:1],,7p3[8:1],7,
,8q4[8:1],8,,5,5,3,7p3[8:1],
,8v5[8:1],8,,6-1[8:1],,2q6[8:1],2,
,1v4[8:1],1,,3,3,7,16,
,2,2,,4v1[8:1]/3^5[8:1],,,,2-5[8:1],,,7-4[8:1],,,,1b,
,3,7-5[8:1],7,8-4[8:1],8,7-3[8:1],7,
8-2[8:1],8,7-4[8:1],7,8-3[8:1],8,7,7b,
,8,2-4[8:1],2,1-5[8:1],1,2-6[8:1],2,
1-7[8:1],1,2-5[8:1],2,1-6[8:1],1,2,2b,
,7,1-4[8:1],1,8-5[8:1],8,1-3[8:1],1,
8-4[8:1],8,1-5[8:1],1,8-6[8:1],8,1,1b,
,2,8-5[8:1],8,1-4[8:1],1,8-6[8:1],8,
1-5[8:1],1,8-4[8:1],8,1,1,8,,
3,3,4,3,3,4,2,2,6,6,5,6,6,5,7,7,
2,2,6,2,2,6,1,1,7,7,3,7,7,3,8,8,
{1}
1bV74[4:7]/7bV14[4:7],,,,E
&inote_6=
(125)
{2},
6h[4:6]/5<3[4:5],,,{8},,7/8<2[4:6],78,
{2}
1h[4:6],,,{8},,34,78,
{16}
25,,25,,7,8,71,,
25,,25,,6,5,46,,
2-5[16:1],,1,2,,8,1,,
7-4[16:1],,8,7,,1,8,,
47,,47,,2,1,28,,
47,,47,,3,4,35,,
7-4[16:1],,8,7,,1,8,,
3b/6b,,4,4,,5,5,,
2,,24,,8,1,,46,
,35,3,,24,,13,,
78,8-4[16:1]/7,,2/6-1[16:1],,8/5-2[16:1],,6,
,5,8,,17,,26,,
7,,57,,1,8,,35,
,46,6,,57,,68,,
12,1-5[16:1]/2,,7/3v8[16:1],,1/4<2[16:2],,3,
,4,2,,4,,,,
7,,78,,1V35[16:2]/6,16,,7h[16:2],,,7,,8,,46,,
1,1-3[16:1],,5-7[16:1],,1-5[16:1],,5,
,1,8-4[16:1],,26,,1,,
2,,12,,3/8V64[16:2],38,,2h[16:2],,,2,,1,,35,,
8,8-6[16:1],,4-2[16:1],,8-4[16:1],,4,
,8,1,,37,,,,
8z4[16:3],,,2/6h[8:1],,,,,
1s5[16:3],,,3/7h[8:1],,,,,
8z4[16:3],,,2/6h[8:1],,,,,
7,7,,15,,34,,,
1h[8:1]/2h[8:1],,,,1h[8:1]/2h[8:1],,,,
3,1,2,8h[8:1],,5,7,4,
6,3,5,2,4,1,5,2,6,3,7,4,8h[8:1],,,,
1s5[16:3],,,7/3h[8:1],,,,,
8z4[16:3],,,6/2h[8:1],,,,,
1s5[16:3],,,7/3h[8:1],,,,,
2,2,,48,,26,,,
8-5[8:1],,4,4,8-3[8:1],,4,4,
8-4[16:1],,4^1[16:1]*^7[16:1],4,8,,,,
26,26,,34,,78,,15,
15,,28,,37,3,5,5-1[8:1],
,4,6,5,7,,6,4-8[8:1],
,5,3,4,2,,3,5-1[8:1],
,4,7,5,8,,6,2h[8:1],
,4,3h[16:2],,5,5,2,8-4[8:1],
,1,7,8,6,,6,1-5[8:1],
,8,3,1,4,4,3,8,
8b,7,6,1b,8,7,2b,1,
8,3b,2,1,4b,3,5,4-8[8:1],
,7,1,4,2,,3,5-1[8:1],
,2,8,5,7,,6,4-8[8:1],
,7,1,4,3,,2,7h[8:1],
,5,6h[16:2],,4,4,7,1-5[8:1],
,6,4,1,3,,2,8-4[8:1],
,3,5,8,6,6,3,1b,
,2,4,,3/5v2[16:1]*v8[16:1],,1^4[8:1]*^6[8:1],,
5b,,,,,,,2b/5h[8:1],
,3,3,6,2,7,2,7,
1-3[16:1],8-6[16:1],1-4[16:1],8-5[16:1]*-5[16:1],,,,,
,3,7,2,6,3,6,3,
5^7[16:1],4^2[16:1],5v8[16:1],4v1[16:1]*v1[16:1],,,,,
,7,4,5,3,6,2,7,
1-5[16:1],8-4[16:1],1^4[16:1],8^5[16:1]*^5[16:1],,,,,
,2,7,1,6,2,5,3,
6-3[16:1],2-5[16:1],7,1,,,7,,
1h[16:2]/2<6[83.33#8:1],,,5h[16:2]/6>1[83.33#32:5],,,28,,,,,,5,,5,,
8h[16:2]/7>3[83.33#8:1],,,4h[16:2]/3<8[83.33#32:5],,,17,,,,,,1,,2,,
3h[16:2]/5<1[83.33#8:1],,,8h[16:2]/1>5[83.33#8:1],,,56,,,,,,8,,8,,
6h[16:2]/4>8[83.33#8:1],,,1h[16:2]/8<4[83.33#8:1],,,34,,,,,,1,,1,,
7,,57,,1,8,,35,
,46,46,,57,,68,,
12,1-5[16:1]/2,,7/3v8[16:1],,1/4^7[16:1],,3,
,4,1,,28,,37,,
2,,24,,8,1,,46,
,35,35,,24,,13,,
78,8-4[16:1]/7,,2/6v1[16:1],,8/5>7[16:2],,6,
,5,7,,5,,,,
1z5[16:3],,,7/3h[8:1],,,,,
8s4[16:3],,,6/2h[8:1],,,,,
1z5[16:3],,,7/3h[8:1],,,,,
2,2,,48,,56,,,{24}
4,3,2,7,6,5,4,3,2,7,6,5,
3,2,1,8,7,6,3,2,1,8,7,6,
4,3,2,1,8,7,5,4,3,2,1,8,{32}
7,,3,5,3,,4,,{16}1,2,3,,
8s4[16:3],,,2/6h[8:1],,,,,
1z5[16:3],,,3/7h[8:1],,,,,
8s4[16:3],,,2/6h[8:1],,,,,
7,7,,16,,48,,,
1-4[8:1],,5,5,1-6[8:1],,5,5,
1-5[16:1],,5^2[16:1]*^8[16:1],5,1,,,,
37,37,,56,,28,,16,
16,,27,,38,3,2,16,
,7,8-6[16:1],1-3[16:1],2,,8,1,
,7,8v5[16:1],1v4[16:1],2,,8,1,
,6,8-4[16:1],1-6[16:1],3,,8,1,
,5,5h[16:2],,2,1,8,7,
,3,4-1[16:1],5-8[16:1],6,,4,5,
,3,4,5,6,3,5,1,
1b,2,3,8b,1,2,7b,8,
1,6b,7,8,5b,6,7,4,
,2,1v6[16:1],8v3[16:1],7,,1,8,
,2,1^4[16:1],8^5[16:1],7,,1,8,
,3,1-5[16:1],8-3[16:1],6,,1,8,
,4,4h[16:2],,7,8,1,2,
,6,5^7[16:1],4^2[16:1],3,,5,4,
,6,5,4,3,3,7,1b,
,8,28,,3v4[16:1]/7v6[16:1],,5-2[8:1]*-8[8:1],,
3b/7b,,,,,,,7b/4h[8:1],
,6,2,7,2,7,3,6,
4-2[16:1],5-7[16:1],3-1[16:1],6-8[16:1]*-8[16:1],,,,,
,2,5,4,5,4,6,3,
7-5[16:1],2-4[16:1],6-8[16:1],3-1[16:1]*-1[16:1],,,,,
,6,2,7,1,8,2,7,
2-5[16:1],7-4[16:1],1-6[16:1],8-3[16:1]*-3[16:1],,,,,
,4,7,2,7,2,8,1,
8-3[16:1],1-6[16:1],7-4[16:1],2,,,,,
3,4,5,3,4,5,3,5,2,4,6,2,4,6,2,6,
1,8,7,1,8,7,1,7,2,8,6,2,8^6[16:1],6^4[16:1],4^2[16:1],2^8[16:1],{1}
8bw4[8:6],,,E
