&title=LAST STARDUST
&artist=Aimer
&first=0
&des=此身必为无限剑制
&lv_5=13+
&inote_5=(81.3333)
{1},
{1},
{2}3pp5[12:2],7qq5[12:2],
{4}3qq6b[12:4],,,Cf/E3/E7/B3/B7,
{12}1b/7hb[6:1],2,2,3h[6:1]/4,5,5,4-8[12:1]/6h[6:1],2,2,4x/5x,,1,
{12}8/2h[6:1],7,7,6h[6:1]/5,4,4,5<8[12:1]/3>8[12:1],7,7,{24}5x/3x,,,,8,,
{24}7b/1b,,7,5,6,,54,,3,4,2,,1/5-1[12:1],,7,3,6,,4x/5x,,,,8,,
{24}7b/1b,,2,4,3,,54,,6,5,7,,8v5[12:1]/4v1[12:1],,73,,62,,,,,,,,
{12}6b>4[12:1],,,2h[12:2],,3,2/4<6[12:1],,,3,4,4,
{12}7<4[12:1]/5,,,2h[12:2],,3,2/4<7[12:1],,,3,4,4,
{12}8p4[12:1]/5,,,1h[12:2],,3,2/4q1[12:1],,,3,4,4,
{12}5h[12:2]/8,,6,5<8[12:1],4qq2[12:1],3,,,,37,{24}6,4,5,,
{12}2b-5[12:1]/4,,,2/7h[12:2],,6,7/5-2[12:1],,,56,7,6,
{12}1-5[12:1]/5,,,1/7h[12:2],,6,8/5-1[12:1],,,57,6,5,
{12}8V24[8:1]/4,,,7h[12:2]/8,,6,8/5V38[12:2],,,57,6,5,
{12}4h[12:2]/1,,2,3p5[12:2],4,5>1[12:2]*<1[12:2],,,,,,,
{12}3bqq4[4:1]/7b,,6,3x/5x,,6,6<4[4:1],,3,4x/6x,,,
{12}2pp1[4:1],,6,2x/5x,,7,7p3[8:1],,3,4x/7x,,,
{6}2xh[12:1]/4xh[12:1],1xh[12:1]/5xh[12:1],6xh[12:1]/8xh[12:1],5xh[12:1]/7xh[12:1],4xh[12:1]/8xh[12:1],1xh[12:1]/3xh[12:1],
{12}2pp6[4:1],,1,2x/8x,,7,7p3[8:1],,8,7x/1xq5<4b[12:6],,,
{4}5b,,{48},,,,,,,,,,,3x/7x,{4}4xh[12:1]/6xh[12:1],
{12}4/6h[12:2],2,2,3h[12:2]/5,7,7,4<7[12:1]/6,1,1w5[12:1],3x/4x,,1x,
{12},3b/7b,2b/8b,4bqq8b[4:1]/6b,3b/5b,2b/6b,4b/5b,,,A7f,,,
{12}1b-3[12:1],5-7[12:1],6,1,5,4,8-4[12:1],4-6[16:1],7,1,2,3,
{12}8h[12:1]/4,5,6,5<4[12:2]/1h[12:1],4,3,45,,,1,28,37,
{12}5-8[12:1],1-4[12:1],2,5,1,7,5-1[12:1],1-7[16:1],6,4,3,2,
{12}5/1h[12:1],7,62,4>5[12:2]/8h[12:1],1,37,45,,,8z4b[12:2],17,26,
{12}4xb,,,{48}1x<2[12:2],2x,3x,4x,5x,6x,7x,8x,,,,,{12}3xh[4:1]/1x,,,{48}8x>7[12:2],7x,6x,5x,4x,3x,2x,1x,,,,,
{12}8x/6xh[4:1],,,{48}1x-5[12:1],2x,3x,4x,5x,6x,7x,8x,,,,,{12}3xh[4:1]/1x,,,5-2[12:1]*-8[12:1],28,28,
{12}5x,,,4b-1[12:1]*-7[12:1],17,17,4xw8[12:1],,62,4x,,71,
{12}2hb[12:1]/6b,5,34,2/7h[12:1],4,56,1h[12:1]/7,5,{24}3,4,1,,35,,6,5,
{12}8b<5[12:1],4-8[12:1],3,82,4,6,1-5[12:1]/7,5<8[12:1],4,12,3,4,
{12}7h[12:1]/5,8,1,4qq5[12:2]/2h[12:1],1,8,{24}64,,,,,,7,5,6,4,5,3,
{12}4>1[12:1],8p4[12:1],7,46,8,2,5p1[12:1]/3,1>4[12:1],8,56,7,8,
{12}1b/7hb[12:1],5,34,8bw4b[12:1]/2hb[12:1],4,56,A8f,,,{24}3,5,4,6,5,7,
{12}2xb/8xb,3x,4x,{48}8x>7[12:2],7x,6x,5x,4x,3x,2x,1x,,,,,{12}7x/8x,6x,5x,{48}1x<2[12:2],2x,3x,4x,5x,6x,7x,8x,,,,,
{12}1x/2x,3x,4x,{48}8x-4[12:1],7x,6x,5x,4x,3x,2x,1x,,,,,{12}7x/8x,6x,5x,2-5[12:1]/4-7[12:1],18,18,
{12}2x/4x,,,5b-2[12:1]/7b-4[12:1],18,18,5xw1[12:1]/7x,,37,5x,,28,
{12}5hb[12:1]/6b,7,82,3/4h[12:1],1,78,6/5h[12:1],1,{24}2x/8x,3x/7x,{12}4x>3>2<1<8<7<6<7>8>1>2>3<4b[12:6]/6x,5x/1x,5x/1x,
{2}A4f,{48}5xb,6x,7x,8xh[48:9],,,,,,,,,{4}A5,
{12}1b/7hb[6:1],2,3,2h[6:1]/4,5,6,5-1[12:1]/7h[6:1],4,3,2x/5x,3,4,
{12}5/7h[12:1],8,1,2h[12:1]/4q1[8:1],1,8,4x/6x,,,8<5[12:1]/2>5[12:1],5,73,
{12}8x/2x,,,1>4[12:1]/7<4[12:1],4,26,7x/1xs5[8:1],,62,1x,,,
{12}6b/4hb[6:1],7,8,7h[6:1]/1,2,3,4-8[12:1]/2h[6:1],5,6,4x/7x,6,5,
{12}4/2h[12:1],1,8,7h[12:1]/5V38[8:1],8,1,5x/3x,,,7-3[12:1]/1-5[12:1],4,62,
{12}7x/1x,,,8-4[12:1]/2,4,62,{24}8x,,{48}1x,2x,3x,4x,5x,6x,7x,8x,
{12}5x>2[12:1]/1x<6[12:1],73,48,
{1}5b/1bpp6b[12:14],
