&title=HIVEMIND INTERLINKED
&artist=かたぎり
&first=0.02
&des=《WARNING》KINDLIVE MINDHTRINEE -assimilated- #TAG:歌曲BPM>250 LV3 20个以上连续绝赞阵 LV1 JB星星 LV1 BREAK数/总物量数均包括6和3 LV2 至少5处neta要素(紫Loschen;紫Aegleseeker;紫Cyaegha;GIMME DA BLOOD段类本家的大量反手;It's behind you的星星背后出绝赞;corruption结尾类本家还原) LV2 孔明陷阱(结尾长hold+星星后还有3个hold)LV2 TOTAL LV:3+1+1+2+2+2+2=11 #不确定是否能认定的TAG: 双语(英/日双语唱段均有)LV2
&lv_5=14+
&inote_5=(252){1}1-3-5<8-3<4-7-1>5[4:14]/8h[4:10],,
{4},,,,{6}6hx[4:3],,,,,,
{4}6bhx[4:2]/5h[4:6],,,,2b,,,,3bh[4:2]/4h[4:6],,,,7b,,,,7bh[4:2]/5h[4:6],,,,3b,,{16}Ch[16:3],,,B3,,,B6,,
{4}1hx[4:4]/8xz4<7-3[8:9],,,,,{32}1bpp6[42#24:6]*qq4[42#24:6]b,B1,C,B5,A5,,,,,,,,,,,,,,,,,,,,{4},,,A1f/E1/E2/B1,,,,,
{4},,1b,,
{4}2h[4:3]/8,6,6,6,7h[4:3]/1,3,3,3,3h[4:3]/5,7,7,7,6h[4:3]/4,2,2,2,
{8}3,3x,5,5x,1,1x,7,7x,2,2x,8,8x,4,4x,6,6x,{16}1b,2x,3x,4x,5x,6x,7x,8x,5b/1x,6x,7x,8x,1xs5z1[4:3]b,2x,3x,4x,{1}1bx/5bx,
{8}8bx-4[8:1],,2xv7[8:1],,6xv3[8:1],,1x-4[8:1],1x,7xv5[8:1],,3xv1[8:1],,6x-3[8:1],,2x,2x,
{8}5,2,4,3,6,1,7,8,6,5,7,4,8,3,7,7,
{8}1x-5[8:1],,1bx/7x-4[8:1],,2x,2x,5x,5x,3x,6x,4x,7x,2x-5[8:1],,2x,,
{16}7x<4[8:1],,,3,,,2,,1xp4[8:1],,,6,,,7,,8x,,8x,,1x,,1x,,8-4[8:1],,,,8bpp5[8:6]b/2qq5[8:6],,,,
{1},
{16}2h[16:3],,,4h[16:3],,,3h[16:2],,8x,,2x,,7x,,1x,,6h[16:3],,,8h[16:3],,,7h[16:2],,Ch[8:2],,,,,,,,{8}6h[4:1],4x,3h[4:1],5x,6h[4:1],4x,3h[4:1],5x,
{16}7h[16:3],,,5h[16:3],,,6h[16:2],,{24}1,2x,3x,4x,,,{8}8,8,
{16}3h[16:3],,,1h[16:3],,,2h[16:2],,7-4[8:1],,8,,7,,
{4}1x-6[8:1]*-4[8:1],,8x-3[8:1]b*-5[8:1]b,,1-5[8:1],1<6[8:1],1>4[8:1],{24}1x,,,,,,
{8}6bx,5x,5x,3bx,4x,4x,7bx,6x,6x,2bx,3x,3x,8bx,7x,1bx,2x,{16}8bhx[16:3],,,1bhx[16:3],,,7bhx[16:2],,{32}2b,3x,4x,5x,6x,7x,8x,1x,2x,3x,4x,5x,6x,7x,8x,1x-4<7-2[4:2],{4}2x-5<8-3[4:2]b,,,,{8},
{1}7p4>5p2[8:24]/3h[8:32],,,{8},,,,{16}B3,B4,B5,B6,{12}B7,B8,B1,
(126){16}Ch[4:1],,,,1x,,
(252){4}7-2-5[2:1],3x,5-8-3[2:1],4x,3-6-1[2:1],2x,{8}2-5[8:1]b,,2,,
{4}6-3-8[2:1]b,2x,8-5-2[2:1]b,1x,2-7-4[2:1]b,3x,{8}3-8[8:1],,3,,
{4}7x-4[8:1],{24}7x/8x,B8,C,B4,,,{4}5x-1[8:1]b,{24}6x/5x,E7,B7,B8,,,{4}2x-5[8:1]b,{24}2x/1x,B1,C,B5,,,{4}4x-8[8:1],{24}3x/4x,E3,B2,B1,,,
{8}E7,E3/B3,E8,E4/B4,E6,E2/B2,E1,E5/B5,E7,E3/B3,E6,E2/B2,7x-3[8:1],,,,
{4}2bxV46-8[4:3]b,B3,6bxV82-4[4:3]b,B7,2bxV46[4:2]b,B3,7x,B8,7xV53-1[4:3],B6,3xV17-5[4:3],B2,7xV53[4:2],B6,2x,B1,
{8}1hx[4:2],,3,4,5hx[4:2],,E8/B7/B8,,8-4[8:1],,8/2-6[8:1],,2,,8h[2:2],,
{4}7q1>5[4:3]b,,,,7-3[8:1],7/1-5[8:1],1,8,
{8}8b/1b,3,2,1-5[8:1],,1/7>4[16:3],,7/4,,,6,6,2,2,6-1[8:1],6,2,,4,,2<7[8:1],2,4-8[8:1],4,2>5[8:1],2,7,7,1,1,8,,
{8}1x/5x,,3,2,1,2q6[8:1],3,8,,7xh[16:1],7xh[16:1],7xh[16:1],,8,2>4-6[2:1],8,1,,8h[8:1],,8,,7,7,2,5,3,6,{16}1-5[8:1],2x,3x,4x,1/5x,,,,
{16}2,3,4,5,8,7,6,5,1x-4[8:1],,,7,,,6,,5xv7[8:1],,,3,,,2,,8x>3[8:1],,,7x,,,6x,,
{16}5,6,7,8,1xh[16:3],,7,6,5,4,3xh[16:3],,1,8,7,6,1,2,3,4,1,2,3,4,1,2,3,4,5,6,7,8,
{16}1xp7[8:2]/5x,,,,,,,,6,5x,4x,3x,2x,1x,8x,7x,6xq4[8:2]/2x,,,,,,,,1,2x,3x,4x,5x,6x,7x,8x,
{4}1xV73V51[4:3]/5,,,,8h[2:1],,{16}1,2,3,4,5x/1x,,,,
{4}7v5<1[4:2],1,{16}3,,,4,,,5,,{4}2v4>8[4:2]b,8,{16}6,,,5,,,4,,{4}7-4[8:1],1,2-5[8:1]b,8,{8}7h[4:1],,1,1,{16}7b,,,2b,,,8b,,
{16}2qq3<5[4:2]b,,,,,,,,{24}E7,B6,B5,E5f,,,,,,,,,{16}7pp6>4[4:2],,,,,,,,{24}E3,B3,B4,E5f,,,,,,,,,
{8}2,6,3,7,4,8,5,1,Ch[8:3],,,,E7/B7/B6/E3f/B2/B3/A7/A6/D7/A2/A3/D3,,,,
{24}7b/2b,6bx/3bx,4bhx[24:7]/5bhx[24:7],,,,,,,,,,{16}3bh[8:3]/6b,,,5b,,,7b,,6bh[8:3],,,4b,,,2b,,8b,,8b,,1b,,1b,,
{24}7bx/2bx,6bx/3bx,4bx/5bx,,,,7bx/2bx,,,,,,{16}1bh[8:3]/6b,,,5b,,,7b,,8bh[8:3],,,4b,,,2b,,7b-3[8:1]b,,,,7b,,,,2bh[4:1],,,,7b,,,8b,7b<4[8:1]b,,1b,,7b,,,,3bh[4:1],,,,8b,,,2b,1b<6[8:1]b,,,,2b,,,,
{8}1b,5x,5x,5x,2b,6x,6x,6x,3b<2[4:2],,,,,,Cf,,
{8}8b-4[8:1]/1b,,3x,,8-6[8:1]/1,2,3,,8-4[8:1]/1,,3,2,8-6[8:1]/1,,4,,
{8}1b-5[8:1]/8b,,6,,1-3[8:1]/8,7,6,,1-5[8:1]/8,,6,7,1h[4:1]/8,,,,
{16}7h[8:1]/2,,,3,7h[8:1],,4,,7h[8:1]/2,,,3,7h[8:1],,4,,7h[8:1]/2,,,3,7h[8:1],,4,,7-4[8:1]/1,,,2,7,,3,,
{16}2h[8:1]/5,,,6,2h[8:1],,7,,2h[8:1]/5,,,6,2h[8:1],,7,,2h[8:1]/7x-3[8:1],,,,2h[8:1]/7x,,,,1w5[8:1],,,,,,,,
{8}2b-6[8:1]/8b,,7,,2-4[8:1]/1,8,7,,2-6[8:1]/8,,7,8,2-4[8:1]/1,,6,,
{8}7b-3[8:1]/1b,,2,,7-5[8:1]/8,1,2,,7-3[8:1]/1,,2V84[8:2],,6,,,,
{16}8h[8:1]/3,,,4,8h[8:1],,5,,8h[8:1]/3,,,4,8h[8:1],,5,,1h[8:1]/6,,,5,1h[8:1],,4,,1h[8:1]/6,,,,1h[4:1]/8,,,,8,7,6,5,7,6,5,4,6,5,4,3,5,4,3,2,6,5,4,3,2,1,8,7,{8}6x>4[8:1]/2x>4[8:1],,,,
{16}8hx[16:3],,,,{32}B1,C,B5,,{16},,,,2/6,,,3/5,,,4>1[8:1],,,,,,5<3[8:3],,,,,,A7,A8,A1,A2,
{16}4h[16:4],,,,{32}1h[1:0],B1,C,B5,{16},,2,,,3/6,,,4/7,,8-4[8:1],,,,8b>3[8:1],,,,8b<5[8:1],,,,8b,,,,
{16}2h[8:1],,,,3h[8:1]/7h[8:1],,,,4h[1:0],,,5,,,6,,7h[1:0],,8,,1,,2,,{12}3h[1:0],4,5,6,7,8,{16}1h[1:0],2,3,4,5,6,7,8,{32}1h[1:0],2x,3x,4x,5x,6x,7x,8x,
{4}1x-5[4:3],,,,1b,Cf,,,,,,,,
{4}7h[4:4],,,,2h[4:3],6,4h[4:1],,1>5[4:2],5,6,7,8<4[4:2],4,3,2,1>4[8:1],7,8<5[8:1],2,1h[4:2],,{8}8-5[8:1],1,8,,
{16}3h[16:3],,,4h[16:3],,,2h[16:2],,7,,,8,,,6,,2h[16:3],,,1h[16:3],,,3h[16:2],,6,,,5,,,7,,3h[16:3],,,5h[16:3],,,1h[16:2],,7,,,1,,,5,,2h[16:3],,,8h[16:3],,,4h[16:2],,6,,,4,,,8,,
{8}3>8[8:1],3,7<4[8:1],7,2-7[8:1],2,6-3[8:1],6,1-4[8:1],1,5-8[8:1],5,2>5[8:1],2,6,6,{16}1,2,3,4,5,6,7,8,{32}1,2x,3x,4x,5x,6x,7x,8x-4[61#33:1]b,1x-5[63#32:1]*-5[63#32:1],,,,,,,,
{4}1hx[4:2]/8hx[4:2],,,1x/8x,
{4}7-3[4:2],,,,7-3[4:2]b,,,,
{8}2bx/5bx,{16}3,4,3,,{8}4x/5x,{16}6,5,6,,{8}7x/4x,8,2>4[8:1],5x,2-6[8:1],7x,2,5x,8b,,
{8}7x/4x,{16}6,5,6,,{8}5x/4x,{16}3,4,3,,{8}2x/5x,1,7-5[8:1]b,8x-4[8:1]b,7,8x,1-5[8:1],2x-4[8:1],1,2x,
{8}8,8x,6,6x,4,4x,2,2x,{16}8x,7x,6x,5x,4x,3x,2x,1x,8x-4[8:1],,,,,,,,
{16}1,2,3,4,5h[16:2],,2,1,8-4[8:1],7,6h[16:2],,8,,,,8,7,6,5,4h[16:2],,7,8,1-5[8:1],2,3h[16:2],,1,,,,4,3,2,1,8h[8:1],,3,4,5-1[8:1],6,7h[8:1],,5,,,,
{16}8,7,6,5,8,7,6,5,8,7,6,5,4,3,2,1,
{4}8-4[4:2],,,,8-4[4:2]b,,,,8pp3[4:5]b*qq5[4:5],,,,,,,7V15[4:1]/4,
{16}2V48[4:1]/7,,,,,,,,6,,,7,,,1,,2V84[4:1],,,,4V26[4:1],,,,7,,,7,,,7,,8h[16:3],,,4h[16:3],,,6,,{12}3,4,2,6,5,7,{16}1>5[4:1],,,,5<8[16:3],,,,6h[4:1],,,,{24}1x,2x,3x,,,,
{8}7b/4,6,5,6,5/2b,3,4,3,8b/4,7,5,7,1b/5,2,4,2,3/7b,5,2b/6,4,{16}7b,3,7,3,6b,2,6,2,
{8}E7,E3,E6,E2,E8,E4,8-4[8:1],2hx[8:33],
{32}8b-6-4>1-6>5-2-8<4[4:13]b,B8,Cf,B4,A4,,,,{4},,,,,,,,,,,,,,,6bh[4:1],4h[4:1],2bh[4:1],
