&title=Scar/let
&artist=ReoNa/Nintendo Switch「ソードアート・オンライン Alicization Lycoris」OPテーマ
&first=0.72
&wholebpm=175-176
&demo_seek=52.9
&demo_len=25.1
&des_5=RagNa
&des=RagNa
&lv_5=14
&inote_5=(176){8}
4-1[4:3],,,,,,,{64},{16}7,6,{8}
5h[8:3],,,3h[128:47],,{16},{128},,,,,,,7h[128:33],{8},,
5h[8:3],,,4h[128:47],,{16},{128},,,,,,,2h[128:33],{8},,{32}
1,8h[32:31],{16},,,,,,,,,7,6,5,4,3,2,{2}
1s5[4:3],,
(175)7-3[8:1],{16}2,4,2,4,2,4,1-5[8:1],,
,,61,,7h[4:1],,,,8h[16:3],,,5h[16:3],,,4<8[4:1],,
,,8>4[4:1],,,,4<8[4:1],,,,8^3[16:3],,,,4,,
5-8[8:1],,,,5/4h[4:1],,,,1h[16:3],,,3h[16:3],,,4V68[16:3],,
,,1,,2,,3qq5[8:3],,,,3/8h[4:1],,,,,,
7v4[8:1],,,,7/3h[4:1],,,,5h[16:3],,,1h[16:3],,,8<4[4:1],,
,,4>8[4:1],,,,8^5[16:3],,,,4,,,,8,,{16}
1h[8:1]/4h[8:1],,,3h[8:1]/6h[8:1],,,58,,
4h[8:1]/2h[8:1],,,7h[8:1]/5h[8:1],,,8b/1b,,{8}
,,,,,,,4bpp4[2:5]/5h[1:4],{1}
,
,
,
4-8[16:7],(175){4}
1/5V36[16:7],1,1,1,
6V47[16:7]/2,2,2,2,
7V58[16:7]/3,3,3,3,{16}
1,2,3,5,6,7,{24}1,2,3,6,7,8,2,3,4,5,6,7,{8}1-5[8:1]/8-4[8:1],
,18,,36,3-6[8:1]/6,,7,7h[4:1],
,5-1[8:1],,8^5[8:1],,2-6[8:1],,4>5[16:7],
,,,,,,,34,
4-8[8:1]/3,,1,1h[4:1],,7^2[8:1],,4q5[32:11],
,,,,7h[2:1],,6,,
3h[2:1],,4,5,6-3[8:1],,3,2,
1V35[16:3],,6,7,8V64[16:3],,3,2,
1-5[8:1],,17,8-4[8:1],,8/4qq3[32:10]*pp5[32:10],,,
,,,,4h[4:1],,5^8[4:1],,
8^3[4:1],,3>5[16:7],,5,,3,,
4h[4:1],,3h[4:1],,1-5[8:1],,4h[4:1],,{24}
6,7,8,1,2,3,4,5,6,7,8,1,{8}27,,34,45,
65,6,68,6,64,6,61,6,
34,3,31,3,35,3,38,3,
75,6,24,3,85,6,14,3,{16}
8,7,6,5,1,2,3,4,{24}8,7,6,5,4,3,{32}4,5,6,7,8,1,2,3,{8}
4b/5b,,,,,,,2b-6[8:1]/6b,
,8,8h[4:1],,5-1[8:1],,5/7-5[8:1],,
7/8-2[8:1],,8/4-8[8:1],,43,,12,3-8[8:1]/8,
,36,5>7[8:3],,1^7[8:1]/5,,4<2[8:3],,
8^2[8:1]/4,,5h[4:1],,{16}3,4,3,4,2,4,1,4,{8}
8-3[8:1]*-4[8:1],,8,,2v5[8:1]/5,,2/6v1[8:1],,
6/3v8[8:1],,3/7v4[8:1],,17,,35,17,
,64,2/8-4[8:1],,8/1^4[16:1],,{32}1/5b,6,7,8,{8}1b/5,
{8},{24}1,2,3,5,6,7,1,2,3,6,7,8,2,3,4,5,6,7,{8}1b/8b-4[8:1],
,3,3h[4:1],,6-8[8:1],,6/2-4[8:1],,
2/1-5[8:1],,1/3-1[8:1],,34,,78,1/6-1[8:1],
,36,4V68[4:1],,8-2[8:1]/4,,5V31[4:1],,
1-7[8:1]/5,,4h[4:1],,{16}6,5,6,5,7,5,8,5,{8}
1v3[8:1]*v7[8:1],,1-5[8:1],,15,,84,62,
,15,3v1[8:1]/7-4[8:1],,37,,25,36,
74,74,25,25,84,84,26,26,
1b/8h[2:1],,,,{24}2,3,4,5,6,7,8,1,2,{16}6-3[8:1]/3,,
,,26,,1h[4:1],,,,8h[16:3],,,3h[16:3],,,4V28[4:1],,
,,8V64[4:1],,,,4-8[16:3],,,,8,,,,3,,
7/2v8[8:1],,,,2/5h[4:1],,,,1h[16:3],,,7h[16:3],,,5-1[8:1],,
,,8,,7,,6,,2h/5h,,3h,4h,3h,4h,3h,4h,
2-6[8:1],,,,2/7h[4:1],,,,5h[16:3],,,8h[16:3],,,1V35[4:1],,
,,5V71[4:1],,,,1-5[16:3],,,,5,,,,8,,
4,7,3,6,2,5,3,6,4,7,3,6,2,5,{8}1b,
,26,8^5[8:1]/4^1[8:1],,84,,26,8/4h[4:1],
,5,2-4[8:1]/7-4[8:1],,27,,1-4[8:1]/7-4[8:1],,
17,,7-4[8:1]/8-4[8:1],,78,,35,26,
71,7,75,7,78,7,74,7,
18,82,83,84,75,64,53,42,{32}
1b,2,3,4,5,6,7,8,1,2,3,4,5,6,7,8,1,2,3,4,5,6,7,8,1,2,3,4,5,6,7,8,
1,2,3,4,5,6,7,8,1,2,3,4,5,6,7,8,1,2,3,4,5,6,7,8,1,2,3,4,5,6,7,8,{16}
1w5[8:1],,,,1,,,,7h[8:1]/3h[8:1],,,1h[8:1]/5h[8:1],{8},2-4[8:1]/6-4[8:1],
,2-8[8:1]/6-8[8:1],,2-6[8:1]/6,,26,,,
5b>5[2:5]/8bV61[4:5],,,,,,,,
,,,,,,,2^4[8:5],
,,,,,,,,{16}
3h[16:1],4h[16:1],1h[16:1],6h[16:1],
4h[16:1],5h[16:1],2h[16:1],7h[16:1],
5h[16:1],6h[16:1],3h[16:1],8h[16:1],
4h[16:1],5h[16:1],1b,E
