&title=Chaser
&artist=平沢進
&first=0.606
&des=Paprika
&lv_5=14
&inote_5=(134)
{16}2h[8:1],4h[8:1],,,3h[8:1],5h[8:1],,,4h[8:1],6h[8:1],,,5,,8h[16:1],,
{24}2,1,2,1,2,1,{16}2h[16:1],,7h[16:1],,4,5,4h[8:1],5h[16:3],,,,,
{16}7h[8:1],5h[8:1],,,6h[8:1],4h[8:1],,,5h[8:1],3h[8:1],,,4,,1h[16:1],,
{24}7,8,7,8,7,8,{16}7h[16:1],,2h[16:1],,{16}8b,8b,1bv8[12:1],1b,8b,,,,
{16}
6b,6,2-4[32:3],,3/5h[8:1],,2,,7,7,5-1[8:1],,3h[8:1]/4,,5,,
2,2,8,8,5h[16:1],7h[16:1],3h[16:1],5h[16:1],1b,1b,8bv1[12:1],8b,1b,,,,
3b,3,7-5[32:3],,6/4h[8:1],,7,,2,2,4-8[8:1],,6h[8:1]/5,,4,,
7,7,1,1,4h[16:1],2h[16:1],6h[16:1],4h[16:1],8b,8b,1bv8[12:1],1b,8b,,,,
7b,7,5,6,4,5,3,4,2h[16:1],1h[16:1],4h[16:1],7h[16:1],3h[16:1],8h[16:1],5h[16:1],6h[16:1],
3,3,4,2,5,1,6,8,7h[16:1],5h[16:1],1h[16:1],3h[16:1],6b,,6b,,
2,2,4,3,5,4,6,5,7h[16:1],8h[16:1],5h[16:1],2h[16:1],6h[16:1],1h[16:1],4h[16:1],3h[16:1],
6,6,5,7,4,8,3,1,2h[16:1],4h[16:1],8v1[12:1],6h[16:1],3b,,3b,,
4b,4,6-4[32:3],,1h[8:1]/7,,6,,3,3,1-5[8:1],,8/7h[8:1],,1,,
8,8,4,4,5h[16:1],3h[16:1],7h[16:1],5h[16:1],8b,8b,1bv8[12:1],1b,8b,,,,
5b,5,3-5[32:3],,8h[8:1]/2,,3,,6,6,8-4[8:1],,1/2h[8:1],,8,,
1,1,5,5,4h[16:1],6h[16:1],2h[16:1],4h[16:1],1b,1b,8bv1[12:1],8b,1b,,,,
2b,2,4h[16:1],3,5h[16:1],4,6h[16:1],5,7h[16:1],8h[16:1],5h[16:1],2h[16:1],6h[16:1],1h[16:1],4h[16:1],3h[16:1],
6,6,5h[16:1],7,4h[16:1],8,3h[16:1],1,2h[16:1],4h[16:1],8h[16:1],6h[16:1],3b,,3b,,
7,7,5h[16:1],6,4h[16:1],5,3h[16:1],4,2h[16:1],1h[16:1],4h[16:1],7h[16:1],3h[16:1],8h[16:1],5h[16:1],6h[16:1],
3,3,4h[16:1],2,5h[16:1],1,6h[16:1],8,7h[16:1],5h[16:1],1h[16:1],3h[16:1],6b,,6b,,
5b>2[8:1]/7h[8:1],,3,8,5-7[32:3],,6,,4,,1-5[8:1],8,2,1,4,,
3>8[8:1],,6,6,3V57[32:5],,4,,1w5[8:1],,8,,1b,,,,
4b<7[8:1]/2h[8:1],,6,1,4-2[32:3],,3,,5,,8-4[8:1],1,7,8,5,,
6<1[8:1],,3,3,6V42[32:5],,5,,8w4[8:1],,1,,8b,,,,
6b,5,8,5,7,5,1,5,7-4[8:1],3,8-4[8:1],2,7,,8,,
6<3[4:1],,5b,,5b-8[8:1],,,,4b-1[8:1],4b,,,3b,,3b,,
2h[16:1],1,4h[16:1],1,3h[16:1],1,5h[16:1],1,3-8[8:1],7,4-8[8:1],6,3,,4,,
2,2,1b,3,1b,5,7,5,8b,8b,3,3,7b-3[8:1],1-4[16:1],7b,1,
{1}7b>6[4:5]*p6[4:5],{4},,{8},8bv1[12:1],8b,,
{16}
3b,3,2,2,1,1,8,8,6,7,5,7,4,7,3,7,
2,2,1,1,8,8,7,7,5,6,4,6,3,6,2,6,
1,1,8,8,7,7,6,6,4,5,3,5,2,5,1,5,
8,8,7,7,6,6,5,5,3,4,2,4,1,4,8,4,
7b,7,5,5,3,3,1,1,7,8,6,8,5,8,4,8,
3,3,1,1,7,7,5,5,3,4,2,4,1,4,8,4,
7b,7,6,6,5,5,4,4,2,3,1,3,8,3,7,3,
6,6,5,5,4,4,3,3,1,2,8v1[12:1],2,7,,,,
6b,6,7,7,8,8,1,1,3,2,4,3,5,4,6,5,
7,7,8,8,1,1,2,2,4,3,5,4,6,5,7,6,
8b,8,1,1,2,2,3,3,5,4,6,5,7,6,8,7,
1,1,2,2,3,3,4,4,6,5,7,6,8,7,1,8,
2b,2,4,4,6,6,8,8,2,1,3,2,4,3,5,4,
6,6,8,8,2,2,4,4,6,5,7,6,8,7,1,8,
2b,2,3,3,4,4,5,5,7,6,8,7,1,8,2,1,
3,3,4,4,5,5,6,6,7h[8:1],,8v1[12:1],,1,1,,,
{1}2b,
