&title=PRECIOUS 3
&artist=HIMEKA
&first=0
&des=不知道
&lv_5=13+
&inote_5=(148)
{1},,,
{4},,5w1[8:1],,2/6,
{8}3-5[12:1],,6/3,{16},4,7-4[8:1],,2,,7,,,,
{16}3,,2>5[8:1]/5,,,,6,,8w4[8:1],,,,8,,,,2-6[8:1],,7,6,5<2[8:4],,,,,,,,,,,,,,,,
{16}1/4,,,2,5,,3,,7h[8:2]/4,,,,6-4[12:1],,,,3/6,,,5,2-5[8:1],,7,,2,,,,
{16}8,,8qq6[8:2],,,,5,4,3-7[8:1],2,1,,
{8}6bpp2[8:6]`6?p3[8:6],,,,,,,,,
{16},8hx[16:3],,,6,,E5,E4,E3,,7,6,5,,
{16}2h[8:1],,4,3h[8:1],,5<2[8:2],4h[8:3],,,,,,,,,,
{16}4h[8:1]/2,,3,5h[8:1],,4<2[16:5],6h[8:3],,,,,,,,,,
{16}5h[8:1],,4,6h[8:1],,5-7>2-4[16:11],7h[8:1],,,,,,,,B7/B6,,,,,,,,
{16}5,,2>4[8:1],1,2,,5,,,,
{16}7h[8:1],,5,6h[8:1],,4>7[8:2],5h[8:3],,,,,,,,,,
{16}5h[8:1]/7,,6,4h[8:1],,5>7[16:5],3h[8:3],,,,,,,,,,
{16}4h[8:1],,5,3h[8:1],,4p5[16:5],2h[8:3],,,,,,,,
{16}3,2,1,8,4,3,2,1,8,7,6/1,,2,4,3,4,3,4,2-8[12:1]/5,,,,
{16}2/4,,,7,5,,6,,4h[8:2]/7,,,,7-2[8:1],,,,
{16}4/7,,,1,3,4,3,,2/5h[8:2],,,,2-6[8:1],,,,
{16}2/5,,,7,4,,6h[16:5]/5,,8pp5[8:5],1,2,3,,,,,4,,,
{16}4,,,3,,2,4,2,,1v6[8:1]/5,,2,,
{16}1/8,,7,5,6>3[8:1],5,7,,2,,1h[8:2],,8v3[8:1],,7,,1/8,,
{16}2,4,3<6[8:1],4,2,,7,,8h[8:1],,7-3[8:1],,,,
{16}7/3,,2,1,8>6[8:4],,,,6,,,,7h[8:4],,,,,,,,8w4[8:1],,,,8,,,,
{8}2b-5[8:1],,2V47[8:2],,7V52[8:2],,,,8<4[8:2],,4>8[8:2],,8<4[8:2],,,,
{8}3-8[8:1],,3V16[8:2],,6V83[8:2],,,,5<1[8:2],,1>5[8:2],,5<1[8:2],,
{16}1,2,3,4,5,,6,4,6,4,6,4,6,4,6,4,7,3,8,2,5b
,3,5,3,5,3,5b,3,5,3,5,3,6b,2,7,1,
{48}8b,B8,C1,B4,A4f,,{16},2w6[12:1],,,2b,,,,
{16}2-7[8:1]/6-3[8:1],,3/7,,2b/6b`Cf,,
{16},,8b/7b,,2b/1b,,
{16}7,,5/6-2[12:1],,,5,6,,4>7[16:3],,4b/B1/E2/B2f,,,,,,
{16}6x,5x,7x-3[12:1],,,5,7,,4>7[16:3],,4b/B1/E2f/B2,,,,,,
{16}6,5,6-2[12:1],,,4,6,,4>7[16:4],,4b/B1/E2f/B2,,,7pp4[8:4],,,4,,,,,,,,
{16}5,,8x,,,7x,,,6x,,4/3-7[12:1],,,4,3,,5<2[16:3],,5b/B8/E8/B7f,,,,,,
{16}3,4,5-2[8:1]/8,,7-4[8:1],,5,,7,,1-5[8:1],,,,1/8,,7>5[8:2],,,,
{16}7/3h[8:2],,,,,,4/6,,5>2[8:1]/7,,8,,5b/4<7[8:1],,,,4b-8[8:1]/5-1[8:1],,,,
{16}4b/5b,,,,{24}2,3,4,8,7,6,4,3,2,
{16}8/1v6[12:1],,,2,1,,4>7[16:3],,4b/B7/B6/E7f,,,,,,
{16}6x,5,4-7[12:1]/1,,,3,4,,1>7[16:3],,1b/B8/B7/E8f,,,,,,
{16}5x,6x,7x-4[8:1],,5-2[8:1],,7,,5,,
{32}8-4[12:1],1x,2x,3x,4x,5x,6x,7x,
{16},,6z2[8:1],,,,6b/2,,,,3bqq5[16:5]/6bpp4[16:5],,,,Cf,,,,,,,,,,
{16}1-5[8:1],,,,5/1,,6,,7<4[8:1],,,,1z5[8:2]b,,,,5s1[8:2]b,,,,1<5[8:2],,,,
{16}5>1[8:2],,,,1,,8,7,6,5,4,3,2-6[12:1]/1,,3/8,,2,,7-3[12:1],,1/8,,7,,
(49.33){96}4-8[32:1],5,6,7,8,1,2,3,(148){32}4h[8:4],,,,,,,,,,,,,,
(1480),,,,,,,,,,,,4?-8[32:28]b,,,,,,,,,,,,Cf,,,,,,,,,(148),,,,,,,
{16},,,,1b/2>5[8:1],,,,7/2,,,,6/5-1[8:1],,,7,5,,7,,8v3[8:1]/1,,,,
{16}2/8,,1,,3<6[8:1],,,,3h[8:2],,,,8b<5[8:1],,,,5,,4pp6[16:10],3qq1[16:9],2,,,,
{16},,,,,,,,,,,,1/4,,,2,5,,3,,4b/6<1[8:1],,,,5/6,,,,
{16}1p5[8:1]/5,,,4,1,,3,,4v7[8:1]/6,,,,4,,6pp8[16:3],,,,
{16}1,2,3-7[8:1]b,4,5,,Cf,,,,,,
{16}8x,7x,6xpp4[4:6],,,,,,3x,2x,1xpp4b[1:1],,,,
E
