&title=Snow White
&artist=Puru
&first=0
&des=Dororo
&lv_5=12+
&inote_5=(75)
{32}
,,,,,,,,,,,,,,,,
1>8[4:11],,,,,,,,,,,,,,,,
,,,,,,,,,,,,,,,,
1^3[2:1],,,,,,,,,,,,,,,,
,,,,,,,,,,,,,,,,
1>5[2:1],,,,,,,,,,,,,,,,
,,,,,,,,,,,,,,,,
5-1[8:1],,5h[32:1],,,,,,,,,,,,,,
1-3[16:1]/7-5[16:1],,,,,,8,,1V73[8:1]/7,,,,,,,,
6-1[16:1]*-4[16:1],,,,4,,,,6,,,,,,,,
3-1[16:1]/7-5[16:1],,,,,,8,,3V51[8:1]/7,,,,,,,,
1-7[16:1]*-5[16:1],,,,7,,,,1,,,,6b,,,,
8-6[16:1]/2-4[16:1],,,,,,1,,8V26[8:1]/2,,,,,,,,
3-8[16:1]*-5[16:1],,,,5,,,,3,,,,,,,,
6-8[16:1]/2-4[16:1],,,,,,1,,6V48[8:1]/2,,,,,,1,,
1>8[8:1],,,,3h[4:1],,,,,,,,,,,,
3^5[16:1]/5h[16:3],,,,,,2h[16:3],,3,,,,1-5[16:1],,,,
6V83[8:1],,,,,,,,4,,4,,,,,,
3^5[16:1]/5h[16:3],,,,,,2h[16:3],,3,,,,1-5[16:1],,,,
4V61[8:1],,,,,,,,3,,3,,,,,,
6^4[16:1]/4h[16:3],,,,,,7h[16:3],,6,,,,8-4[16:1],,,,
3V16[8:1],,,,,,,,5,,5,,,,,,
6^4[16:1]/4h[16:3],,,,,,7h[16:3],,6,,,,8q7[4:1],,8>6[16:3],,
,,,,,,,,,,,,,,,,
3^6[16:1],,2,,1,,8h[16:3],,,,,,7pp3[4:1],,,,
56,,,,2,,3,,4,,5,,,,,,
4^7[16:1],,3,,2,,1h[16:3],,,,,,8V27[8:1],,,,
5V73[8:1],,,,,,,,,,,,,,,,
6^3[16:1],,7,,8,,1h[16:3],,,,,,2qq6[4:1],,,,
43,,,,7,,6,,5,,4,,,,,,
5^2[16:1],,6,,7,,8h[16:3],,,,,,1,,1,,
6qq2[4:1],2,7,3,8,4,1,5,,,,,,,,,
8-3[16:1],,8-6[16:1],,4-2[16:1],,4-7[16:1],,,,,,,,,,
,,,,1,,1,,,,,,,,,,
5^8[16:1],,5-2[16:1],,1-6[16:1],,1^4[16:1],,,,,,,,,,
,,,,1,,1,,,,3,4,3,,3,,
1-6[16:1],,1-3[16:1],,5-7[16:1],,5-2[16:1],,,,,,,,,,
,,,,8,,8,,,,,,,,,,
4^1[16:1],,4-7[16:1],,8-3[16:1],,8^5[16:1],,,,,,,,,,
,,,,8,,8,,,,6,5,6,,6,,
1-3[16:1],,3-8[16:1],,8-4[16:1],,4V62[8:1],,,,,,7h[4:1],,,,
,,,,,,7h[16:3]/2h[16:3],,,,,,,,,,
6-4[16:1],,4-8[16:1],,8-3[16:1],,3z7[8:1],,,,,,2h[4:1],,,,
,,,,,,15,,,,6,5,6,,6,,
8-6[16:1],,6-1[16:1],,1-5[16:1],,5V37[8:1],,,,,,2h[4:1],,,,
,,,,,,2h[16:3]/7h[16:3],,,,,,,,,,
1^3[16:1],,3^5[16:1],,5^7[16:1],,7qq2[4:1]*q8[4:1],,,,,,,,,,
,,,,,,,,1b,,,,,,,,
2>6[4:3]/6<6[2:3]*<8[8:3]*<2[4:3]*<4[8:9],,,,,,,,,,,,,,,,
,,,,,,,,,,,,,,,,
,,,,,,,,7^2[8:1],,,,,,,,
,,,,,,,,2b,,,,,,,,
4qq8[4:3]/8<8[2:3]*<6[8:3]*<4[4:3]*<2[8:9],,,,,,,,,,,,,,,,
,,,,,,,,,,,,,,,,
,,,,,,,,,,,,,,,,
7-3[16:1],,,,,,,,7b,,,,,,,,
7<3[4:3]/3>3[2:3]*>1[8:3]*>7[4:3]*>5[8:9],,,,,,,,,,,,,,,,
,,,,,,,,,,,,,,,,
,,,,,,,,2^7[8:1],,,,,,,,
,,,,,,,,7b,,,,,,,,
2h[8:5]/3<1[2:1],,,,,,,,,,,,,,,,
,,,,,,,,2b,,,,,,,,
7V52[8:3]/8<1[2:1],,,,,,,,,,,,,,,,
,,,,,,,,8b,,6,5,6,5,6,5,
4h[4:1]/7s3[2:1],,,,,,,,,,,,4-8[8:1],,,,
,,,,,,,,,,,,,,,,
1-6[16:1]/2pp6[16:3],,,,,,,,,,,,7,,8,,
1-5[16:1],5,8,4,7,3,6,2,,,,,3b/7b,,,,
2-8[16:1],,2-5[16:1],,34,,57,,,,,,7V53[8:1],,,,
3V16[8:1],,,,78,,,,1h[4:1],,,,,,7,6,
5-3[16:1],,5-1[16:1],,78,,13,,,,,,2,,2,,
7,8,6,5,8,1,5,4,1,2,4,3,8,1,5,4,
3s7[8:1]/7h[4:1],,,,,,,,,,,,,,,,
15,,,,47,,6,6,5,,8,,17,,26,,
4-6[16:1],,4-8[16:1],,21,,86,,,,,,7,,7,,
2,1,3,4,1,8,4,5,8,7,5,6,1,8,4,5,
2/6pp4[4:1],,,,,,,,,,,,3qq5[4:1],,,,
,,,,,,,,,,6h[16:15],,,,4,3,
2<4[4:1],,,,,,,,,,,,,,,,
{48}
,3,2,1,8,7,,5,4,3,2,1,
{64}
8,7,6,5,4,3,2,1,8,7,6,5,4,3,2,1,
{32}
8b,,,,,,,,,,,,4b,,,,
,,,,,,,,,,,,,,,,
2-5[16:1],,2,,1,,8,,7-1[16:1],,7,,6,,5,,
4w8[16:1],,4,,3,,2,,,,,,26,,7,8,
6-1[16:1],,6,,5,,4,,3-7[16:1],,3,,2,,1,,
8-3[16:1]*-4[16:1],,8,,7,,6,,,,,,25,,6,5,
7-4[16:1],,7,,8,,1,,2-8[16:1],,2,,3,,4,,
5w1[16:1],,5,,6,,7,,,,,,73,,2,1,
3-8[16:1],,3,,4,,5,,6-2[16:1],,6,,7,,8,,
1-7[16:1],,1-3[16:1],,1-6[16:1],,1-4[16:1],,1b-5[16:1],,,,,,,,
,,,,,,,,,,,,,,,,
,,,,,,,,,,,,,,,,
E
