&title=MVURBD
&artist=ETIA.
&first=0.35
&lv_5=14
&des_5=YUNNUY
&inote_5=
(175){4},{24},,,,,,,,,1/5,2/6,3/7,{4}4>1[8:1]/8<5[8:1],
{1}D7f/D3f/A7/A6/A3/A2,
{4}1>5[16:3],{8}1,8-4[8:1],,8,3,2,
{4}1>6[8:5],1,{8},6<1[8:3],,,1-4[8:3],
,,6,,5,6/3,7/2,
{4}8/1,1,2/B7/B6/B5/E6/E7,2,
3/B6/E6/B5/E7,3,4/B6/E6/B5,4,
5/B3/B2,5,6/B2,{8}6,7>6[4:1],
7,7,,1<2v4[8:3],{2}1,
{4}6h[8:1],{8}5/4,3,5/4,6,2,5h[4:1],
{16}2,3,{8}4,5/4,6,4/5,3h[4:1],{16}4,5,6,7,
{4}8/1h[8:1],{8}8/1,2,8/1,7h[8:1],1-3[8:1],8-6[8:1],
1-5[8:1],8-4[8:1],1-3[8:1],8,1,{16}8,7,6,5/4,3,2,
{4}1h[8:1],{8}5/4,3,5/4,6,2,5h[4:1],
{16}2,3,{8}4,5/4,6,4/5,3h[4:1],{16}4,5,6,7,
{4}8/1h[8:1],{8}1/7,6,8/2,3,{4}1-3[8:1]/8-4[8:1],
8-6[8:1]/1-5[8:1],1-4[8:1]/8-3[8:1],8-5[8:1]/1-6[8:1],1/8,
{24}2x/7,3x,{12}4x,{24},,2x/7,3x,{6}4x,{24}2x/7,3,{12}4x,{24},,{8}2-4[8:1],4-8[8:1],
2,6-4-8[4:1],,6,{2}2h[4:1]/C,
{8}2<7[16:3],8<5[16:3],6>3[16:3],4>1[16:3],{4}C,{8}8<4v7[4:1],8,
8,1>5v2[4:1],,1,{2}7h[4:1]/C,
{8}4/5,3,5/4,6,3/5,2,6/4,7,
3/5,5/3,6/3,6/3,7/3,7/3,8/3,8/3,
{16}2,1,2,1,2,1,2,1,{32}2,3,4,5,6,7,8,1,2,3,4,5,6,7,8,1,
{8}2/7p3[4:1],7,,1,{4}1w5[8:1],{32}1,B1,C,B5,,,,,{4}3b/7b,
{16}2x,6,4,6,2,6,8,6,2,6,4,6,
2x,7,1,7,3,7,5x,7,3,7,1x,7,5x-1[8:1],7,1x,7,
{4}5x,{16}4,5,4x,5,3,5,4,5,2,5,4,5,
{8}1-5[8:1],2,1/7-3[8:1],6,7/8-4[8:1],1,{4}8/Cf,
2/7b-5[8:1],{8}7-1[8:1],{32}2b,3x,{16}4x,{8}7-5[8:1],{32}2b,3x,{16}4x,{8}7-1[8:1],{32}2b,3x,{16}4x,
{8}7-5[8:1],{32}2b,3x,{16}4x,{8}7-1[8:1],{32}2b,3x,{16}4x,{8}7-5[8:1],{32}2b,3x,{16}4x,{8}7,2b,
{4}2b-4[8:1],{8}2-8[8:1],{32}7b,6x,{16}5x,{8}2-4[8:1],{32}7b,6x,{16}5x,{8}2,{32}7b,6x,{16}5x,
,,{8}2-5[8:1],5-2[8:1],2-8-4[4:1],{4}7-5[8:1],7,
2b/Cf,{16}8,3,4,3,5,3,4,3,7,4,5,3,
5,4,5,3,8,3,6,3,5,3,5,2,{32}6,7,8,1,2,3,4,5,
{4}6/2b,{16}3,4,2,4,3,5,4,6,5,6,3,5,
{8}4-2[8:1],3,5-7[8:1],6,1,{16}8,8,8,8,8,8,
{4}8pp3[16:23],{8}7-4[16:3],6,7,,,4,
,5,5-8[16:3],5,{2}5,
{4}4qq8[8:11],{8}7-5[16:3],7,7,,,5,
,5,5-7[8:1],5,{4}5,{16}2x/7x,3x/6x,{8}4x/5x,
{4}3bs7[16:3]/6bz2[16:3],Ch[8:1],{8},1,1<6[16:3],1,
{4}5h[2:1]/1p5[16:3],1w5[4:1],{2}1,
{4}5v3>7[8:3],{8}4,4,{2}Ch[4:1],
{8}3/4,2>6[4:1],1,2h[4:1],,,7/1-5[8:1],8,
{4}1,{8}6/2<3[8:3],7,{4}8/2,8xh[4:3],
{24}2b,D3,A3,D4,{6}A4,{24},1b,D2,A2,D3,A3,,,,,{8}4,4,
{4}4,{8}5/2-8<5-3[8:3],6,{2}2/7h[4:1],
{32}8b/D3,B3,B5,D6,,,,,8b/D3,B3,B5,D6,,,,,8b/D3,B3,B5,D6,,,,,{4}8-5[8:1],
2/8-3[8:1],6/8-5[8:1],8/2,{8}1,1,
{32}7/2x,6,{16}5,3,4,{8}3,{32}7/2x,6,{16}5,3<7[8:1],4,{8}3,{4}5h[8:1],
{8}2x-6[8:1],6-2[8:1],2pp4>8[4:1],7,{4}C,{8}7x,7x,
{32}2/7x,3,{16}4,6,5,{8}6,{32}2/7x,3,{16}4,6,5,{8}6,{4}3h[8:1],
{8}6x/4,6,6/3,6,6/8,6,6/2,6,
6/3x,3,3/8,3,3/1,3,3/5,3,
{16}4,6,4,6,4,6,4,6,3,7,3,7,3,7,3,7,
2,8,2,8,2,8,2,8,1,1,1,1,1-5[8:1],1,1,1,
{1}Cf/1b>7[1:2],
,7<2[4:7],
{8},,,,,1,8,7,
{1}6-8v1-3[2:3],
{2},5h[8:19],
{16}E1,B8,B7,E7,,,E5,B4,B3,E3,,,E8,B7,B6,E6,
,,E4,B3,B2,E2,,,{2}1xh[8:3],
{32}6x/2x,7x/3x,{16}8x/4x,,,{8}E6,3,3/E7,3,E6,2h[4:1],
{4}E7,3/E6,2/E7,{8}3/E6,3,
{4}3h[4:1]/E7,{8}E6,3,3/E7,3,E6,3,
E7,2,E6,3,{4}E7,{16}A7/4>2[12:1],D7,A6,D6,
{4}4/A5,{8}E4,6,6/E3,6,E4,7h[4:1],
{4}E3,6/E4,7/E3,{8}6/E4,6,
{4}6h[4:1]/E3,{8}E4,6,6/E3,6,{4}E4,
{1}7pp6[2:1]/3pp2[2:1],
{24}2b/6b,3x/7x,{12}4x/8x,{24},,7b/3b,6x/2x,{6}5x/1x,{24}2b/6b,3x/7x,{12}4x/8x,{24},,{8}2-4[8:1],4-8[8:1],
2,6-4-8[4:1],,6,{2}2h[4:1]/C,
{8}2<7[16:3],8<5[16:3],6>3[16:3],4>1[16:3],{4}C,{8}8<4v7[4:1],8,
8,1>5v2[4:1],,1,{2}7h[4:1]/C,
{8}4/6,6,6/8,6,6/2,6,6/3,6,
6/4,6/4,7/5,7/5,6/4,6/4,5/3,3/5,
{16}2,4,2,4,1,3,1,3,{32}8b,7,6,5,4,3,2,1,8,7,6,5,4,3,2,1,
{8}8-4[8:3],8,,5,{4}5,{32}6b/3b,7/2,{16}1-5[5.7429##0.1714]`8-4[5.7429##0.1714],,,{1}8bh[1:3]/1bh[1:3],
{8},,,,,,,,,,,,,,,,,7/2,
6/3,5/4,5/4,6/3,{4}7/2/8?-4b[8:1]/1?-5b[8:1],
8b/1b/Cf,{32}8-4[8:1],7x,{16}6x,4,4,{8}8-3[8:1],{16}3,3,{8}8-6[8:1],{16}2,2,
{8}8-4[8:1],{16}3,3,{8}8,{16}3,3,{8}8b,8b/4b,{16},,3/7,2/6,
{8}1/5,{16}8,8,{8}7,{16}1,1,{8}6,{16}2,2,{8}5,{16}3,3,
{8}4<7[8:1],5,8>3[8:1],1,4w8[8:1],4,{48}4,B4f,C,B8,,,,,,,,,{4}1x>4[8:1],
{8}1-5[8:1],{16}5,5,{8}1-6[8:1],{16}6,6,{8}1-3[8:1],{16}7,7,
{8}1-5[8:1],{16}6,6,{8}1,{16}6,6,{8}1b,{16}2b/6,3b/7,{8}8/4b-1[8:1],8/4b,
{16},,8,8,{8}2,{16}7,7,{8}2,{16}6,6,{8}2,{16}5,5,
{8}2-7[8:1],1,2/6-3[8:1],5,6,{16}8,8,8w4[8:1],8,8,8,
{4}Cf/8x<5[8:1],{8}8-4[8:1],{16}4,4,{8}8-3[8:1],{16}3,3,{8}8-6[8:1],{16}2,2,
{8}8-4[8:1],{16}3,3,{8}8,{16}3,3,{8}7,{16}4,5,{8}4,8/1,
{16}2x,3,8,7,2x,3,8,7,{24}3x,4,5,1x,8,7,3x,4,5,1x,8,7,
{32}4x,5,6x,7,8x,1,2x,3,4x,5,6x,7,8x,1,2x,3,8bx,7bx,6bx,5bx,4bx,3bx,2bx,1bx,8bx,7bx,6bx,5bx,4bx,3bx,2bx,1bx,
{8}4bh[8:5]/8bh[8:5],,,,,,,2/8,
{4}2p6b[8:1]/8<6b[8:1],8bq4b[8:1]/2b>4b[8:1],2b/8b,{8}6<4[4:1],3,
3h[4:1],,,3/6,2,1/8V64[8:1],{24},,,4x/8bx,3,2,
{8}1,{24}5x/8bx<5[8:1],1,2,{8}3,{24}4x/8bx,3,2,{4}1-5[8:1],1,
{8}8h[4:1]/4h[4:1],,,7v4[8:1]/3v8[8:1],4/8,3/7,,6,
{4}7<4[8:1],{24}7x/4bxq8[8:1],3,2,1,,,4bx/8x,1,2,3,,,{8}4>5[4:1]/5p8[8:1],3/6,
5/4,,,2-6[8:1]*-5[8:1],2,2,,8<5<7[48:11]/4>1>3[48:11],
,8/4,,4xh[8:3]/8xh[8:3],{32},,,,,,,,,7x/3x,6x/2x,5x/1x,,,,,{4}8pp4[8:3],
{8}8,7,6,5,,3,
{4}3>8b[8:1],{24}3x/8bxq4b[8:1],7,6,5,,,8bx/4x>1b[8:1],5,6,7,,,4x/8bxv3b[8:1]*v5b[8:1],7,6,5,,,{8}8b,
,,6/3,7,1/8V64b[8:1],{24},,,8bx/4xq8b[8:1],3,2,
{8}1,{24}4x/8bx<5b[8:1],1,2,{8}3,{24}4x/8bx,3,2,1,8,7,6,5,4,{4}3/7,
{8}2x-6[8:1],2,1x-5[8:1],1,8x-4[8:1],8,{32}7,6,5,4,3,2,1,8,
{8}7x-3[8:1],7,8x-4[8:1],8,1x-5[8:1],1,{32}2,3,4,5,6,7,8,1,
{16}2x,7,3,5,1,6,3,5,{32}8x,1,{16}2,5,5,{32}1x,2,3,4,5,6,7,8,
{4}1b/5b,{8}5/1,7b/3b,,2b/8b,3v1[8:1]/7v5[8:1],6/4,
{4}Cf,{16}3,6,5,6,4,6,5,6,2,5,4,6,
4,5,4,6,1,6,3,6,4,6,5,6,{32}3,2,1,8,7,6,5,4,
{4}3/7,{16}5,3,4,3,7,4,5,3,5,4,5,3,
{8}7-4[8:1],8,7/2-5[8:1],1,2,{16}8,8,8,8,8,8,
{4}8qq5[16:21],{8}2-4[16:3],3,2,,,4,
,3,3-7V14[8:3],3,{2}3,
{4}5pp8[4:3],{8}1>4[16:3],1,1,,,4,
,3,2,1>4[8:1]*>4[8:1],4>5[4:7]*>8[1:1]*>7[4:5]*>6[2:3]*>5[4:7],1,
E
