&title=Lisrim
&artist=onoken
&first=-0.17
&des=Dororo
&wholebpm=172
&lv_5=13
&inote_5=(172)
{8}
,,,,,
5,4,3,,,8,7,,,4,3,,,6,7,,1,2,3,,,7,6,,,4,5-8[4:1],,,,2,3,
4,5,6,,,1,2,,,5,6,,,3,2,,8,7,6,,1,2,3,,5,4,4h[8:4],,8,7,6,5,
3/4-6[8:1],2,1,,,7-4[8:1],7,,,3-6[8:1],3,,,1-5[8:1],1,,,4-8[8:1],3,,,2^5[8:1],1,,,8-4[4:1]*s4[4:1],8,,,,3,4,
6/5-3[8:1],7,8,,,2-5[8:1],2,,,6-3[8:1],6,,,8^3[8:1],8,,6,5-1[8:1],4,,6,7^4[8:1],8,,3,2-6[8:1],1,,7,7,78,,
{16}
2b/4b,,1,8,1,8,
{8}
2h[4:1],1,8,7h[4:1],6,5,4h[4:1],3,2,1,8,7,,
{16}
7b/5b,,8,1,8,1,
{8}
7h[4:1],8,1,2h[4:1],3,4,5h[4:1],6,7,8,1,2,,
{16}
34,,35,,36,,3,,3,,37,,38,,3,,
65,,64,,63,,6,,6,,62,,61,,6,,
18,,18,,18,,2,7,1,8,2,7,1,8,
3>6[2:1],4,5,6,,,,,,,5-1[8:1],,5,,,,,,3b/7b,,,,8,,
1pp5[2:1]/8,,,,7,,7,,7,,,,6<2[4:1],,,,
3,,3,,3,,,,1-5[8:1],,,,6-2[8:1],,,,
4qq8[2:1],,,,7,,7,,7,,,,6V42[4:1],,,,
2>6[4:1],,8,,8,,,,1,,1,,2,,3,,
8qq4[2:1]/4,,,,2,,2,,2,,,,3>7[4:1],,,,
6,,6,,6,,,,5-8[8:1]/8,,,,3,,3,2,
1pp4[2:1],,,,6,,6,,6,,,,7<3[4:1],,,,
3b,2,1,8,7,6,5,4,7b,8,1,2,3,4,5,6,
1-5[8:1],,8,,1,,7-3[8:1],,8,,7,,2-6[8:1],,1,,
2,,8-4[8:1],,1,,8,,2^5[8:1]*^7[8:1],,,,2,,,,
6^3[8:1],,5,,6,,1-5[8:1],,8,,1,,7^4[8:1],,8,,
7,,2,,5,,2,,6,4,5,3,4,,6,7,
8-4[8:1],,1,,8,,2-6[8:1],,1,,2,,7-3[8:1],,8,,
7,,1-5[8:1],,8,,1,,7^4[8:1]*^2[8:1],,,,7,,,,
24,,35,,46,,57,,13,,24,,35,,46,,
{24}
8,7,6,2,3,4,7,6,5,1,2,3,8w4[8:1],,,2b/6b,,,,,,,,,
{16}
2,1,3,1,2,,6,5,7,5,6,,3,4,3,,
8,1,7,1,8,,4,6,5,6,4,,8,1,8,,
2,4,3,4,2,,51,,
{12}
2,2,2,6,6,6,
{16}
8,4,1,5,
{24}
2,3,4,7,6,5,{16}2h[16:1],1h[16:1],3h[16:1],8h[16:1],{12}5,5,6,
{16}
3,4,3,4,3,,7,6,7,6,7,,1,2,3,4,
6,5,6,7,6,,2,1,2,3,2,,8,7,6,5,
3b,7,8,7,8,7,5b,7,8,7,8,7,
{12}
2b,2,2,
4b,4,4,
{24}
6,7,8,1,2,3,6,7,8,1,2,3,4b/8b,,,,,,
{16}
7,8,6,8,7,,3,4,2,4,3,,6,5,6,,
1,8,2,8,1,,5,3,4,3,5,,1,8,1,,
7,5,6,5,7,,48,,
{12}
7,7,7,3,3,3,
{16}
1,5,8,4,
{24}
7,6,5,2,3,4,{16}7h[16:1],8h[16:1],6h[16:1],1h[16:1],{12}4,4,3,
{16}
6,,6,5,6,7,6,,3,,3,4,3,2,3,,
8,4,7,3,6,2,5,1,4-7[8:1]/8-3[8:1],,6b/2b,,,,,,
2<3[1:4],,,,,,,,,,,,,,,,
,,,,,,,,,,,,,,,,
,,,,,,,,,,,,,,,,
,,,,,,,,,,,,7,,7,,
,,,,1,,1,,,,,,8,,8,,
,,,,2,,2,,,,,,6,,5,,
,,,,3,,4,,,,5,,4,,5,,
,,3,,2,,18,,,,7b/5b,,8,1,8,1,
{8}
7^4[8:1],8,1,2^7[8:1],3,4,5^2[8:1],6,7,8^5[8:1],1,2,,
{16}
2b/4b,,1,8,1,8,
{8}
2^5[8:1],1,8,7^2[8:1],6,5,4^7[8:1],3,2,1^4[8:1],8,7,,
{16}
65,,64,,63,,6,,6,,62,,61,,6,,
34,,35,,36,,3,,3,,37,,38,,3,,
81,,81,,81,,7,2,8,1,7,2,8,1,
6pp4[1:1],5,4,3qq5[16:13],,,,,,,,,,,,,,,,,,,,,
4b/5b,,,,,,,,,,,,,,,,
{64}
1qq5[2:1],2,,,,,,,,,,,,,,,
,,,,,,,,,,,,,,,,
,,,,,,,,,,,,,,,,
,,,,,,,,,,,,,,,,
7,8pp4[2:1],,,,,,,,,,,,,,,
,,,,,,,,,,,,,,,,
,,,,,,,,,,,,,,,,
,,,,,,,,,,,,,,,,
{16}
6,,5,,4,,3,,,,,,
{64}
2h[128:1],7h[128:1],,,,,,,,,,,,,,,
1^4[2:1]/8^5[2:1],,,,,,,,,,,,,,,,
,,,,,,,,,,,,,,,,
,,,,,,,,,,,,,,,,
,,,,,,,,,,,,,,,,
4,3pp8[2:1],,,,,,,,,,,,,,,
,,,,,,,,,,,,,,,,
,,,,,,,,,,,,,,,,
,,,,,,,,,,,,,,,,
6qq1[2:1],5,,,,,,,,,,,,,,,
,,,,,,,,,,,,,,,,
,,,,,,,,,,,,,,,,
3,,,,,,,,4,,,,,,,,
{16}
5-1[8:1],,,,,,,,
{12}
7b,6b,5b,4b,3b,2b,
{16}
7,8,7^4[8:1],8,
{24}
7,,,4,3,2,
{16}
1,,2,4,3,5,4,6,
{16}
2,1,2^5[8:1],1,
{24}
2
,,,5,6,7,
{16}
8,,7,5,6,4,5,3,
{12}
1,1,3,8,8,6,1,1,4,8,8,5,
{24}
1b,2,3,4,5,6,2,1,8,7,6,5,8b,,8,,4,,6b,,6,,2,,
{16}
7b,4,5,2,6,3,
{24}
7b,8,1,
{16}
3,5,4,6,
{24}
3b,2,1,
{16}
5,4,
{24}
6b,7,8,
{16}
2,4,3,5,
{24}
1b,2,3,
{16}
7,5,6,4,
{24}
8b,7,6,2b,3,4,
{16}
7b,5,7,4,7,3,6,2,6,1,6,8,
{32}
6,5,4,3,2,1,8,7,
{16}
5b/6b,,4b/3b,,1b/2b,,7b-3[8:1]/8b,,,,37,,1w5[8:1],,,,
1b>1[1:3]*<1[1:3],,,,,,,,,,,,,,,,
,,,,,,,,,,,,,,,,
,,,,,,,,,,,,,,,,
,,,,,,,,,,,,8,,7,,
,,,,1,,2,,,,,,5,,4,,
,,,,3,,6,,,,7b-3[2:3]*-3[2:3],,,,,,
,,,,,,,,,,,,,,,,
,,,,,,,,,,,,,,,,
,,,,,,,,,,,,,,,,
,,,,,,,,,,,,,,,,
E
