&title=ちっちゃな私
&artist=重音テト; マサラダ
&first=0
&des=moying
&lv_5=13
&inote_5=(143){1},
{4}4,4,{8}4,{16}6,5,{4}7x/4x,
{4}3-6[8:1],8,6-3[8:1],{8}1,2,
{4}3^6[8:1],8,6^3[8:1],{8}1,2,
{4}3-6[8:1],8,6-3[8:1],{8}3,2,
{4}1-5-3b[4:1],7h[4:1],,{8}8,7,
{4}6^3[8:1],1,3^6[8:1],{8}8,7,
{4}6-3[8:1],1,3-6[8:1],{8}8,7,
{4}6^3[8:1],1,3-6[8:1],{8}6,5,
{4}5h[2:1],{8},{16}2x,3x,{4}4x-8[8:1],,
{4}7h[1:1],{8}6,6,5,5,4,4,3h[2:1],,,
{16}E7,E8,{4}A8,17,
{8}35,5/3h[4:1],,4,2/5s1[8:3],,2x,3x,4xh[2:1],,,
{16}A6,D6,{4}A5,28,
{8}4qq4pp4[4:3],,7,7,8,,1x,8,7h[2:1],,,
{16}E3,E2,{4}A1,5>1[4:1]/6,
{8}1>5[4:1],,8,7,6h[4:1],,3,4,5/2h[2:1],,,
{16}A6,E7,{4}B6,
{8}1,8,7h[2:1],6,5,4,3h[2:1],,
{8}B1,B8,E7,E6,E5,E4,E3/Ch[4:1],,
{8}3x,2x,1x-5[4:1],,A8/B8,D8/E8,A7/B7,,
{4}6<2[4:1],2<6[4:1],A3/E4/B3,A4/D5/E5,
{4}1>5[4:1],5q2[4:1],2q6[4:1],6<2[4:1],4,4w8[8:1],,
{4}3h[4:1],Chf[4:1],
2b,1b/E6/B5/E5/A5f,8b/E5/B4/E4/A4f,7b/A3f/E4/E3/B3,6bhx[2:1]/A2f/B2/E2/E3,
{8},E1,D1,5x,5x-1[8:1],,
{8}5bx/A3/E4/E3,,B5/E5/6x-8[8:1],7,5x-1[8:1],B3,
6x^3[8:1],A7,E2/B2/B1,,
{4}2q7b[4:1],7p2b[4:1],A8/B8,A1/B1,
{8}4-8[8:1]/E7/B6/A6,,A5/D6/E6,7x,7x/1x>5<1>5[4:3],,{4}A5,A1,A5,
6-1[8:1],
{8}6bx/E5/B5/B4,,2x^5[8:1]/A7/E7,3,8-4[8:1],B7,2x,2x,1x/D6/E6/A5,,
{4}3/4<8b[4:1],8<4b[4:1],A1/E2/E1/B1,A3/E3/B3/E4,
{8}7^4[8:1]/E1/B8,,1x-5[8:1],B2,A7/E7/B7,,
{1}4h[4:3]/Chf[4:1],
{2}6,5,
{8}3h[4:1]/4h[4:1],,,45,4h[8:1]/5h[4:1],,,,{1}5/6h[1:2],
{8}A5,,,D5,A4,D4,A3,,{1}D5,
{8}3h[4:1]/4h[4:1],,,45,4h[8:1]/5h[4:1],,,,{1}5/6h[1:2],
{8}A5,,,D5,A4,D4,A3,,{1}D5,
{8}4h[4:1]/3h[4:1],,,54,6h[1:1]/5,,,,
{8}A4,,,D4,D5,,,,
{8}4h[4:1]/5h[4:1],,,56,7xh[1:1]/6x,,,,
{8}C,,,E5,D5,,,,
{8}4h[4:1]/5h[4:1],,,36,7h[1:1]/2,,,,
{8}A1,,,B3,E4,,,,
{4}7,,6,5,4h[1:1]/5,,
{8}E8,,A6,D6,A5,,,E1,D1,,,,
{1}1x-7-2-6-3-5[8:5]/8xh[4:3],
{8}7hx[8:1],6h[8:1],5h[8:1],4,34,25,16,87,
{8}1bx/Cf,,
3x-1[8:1],2x,A3/E3/4x-8[8:1],B6,A4/B4/3x^6[8:1],2,A7/E7/B7/E8/3,,
{4}5-8[8:1]/4,5/4-1[8:1],A5/A4/D5f/E5,A1/A8/D1f/E1,
{8}8-4[8:1]/B2/E2/E3,,A8/B8/3-7[8:1],2,A3/B3/5^8[8:1],,
5bx^2[8:1],,5-1[8:1],,5,,E3/A2/A3/E7/A7/A6,,
{8}8bx/Cf,,
6x-8[8:1],7x,A6/E7/5x-1[8:1],B3,B5/A5/6x^3[8:1],7,A2/E3/B2/E2/6,,
{4}1-4[8:1]/8,1/8-5[8:1],E3f/B2/B3,{8}B8/B1/E8/E2/E1/A8/A1/D1f,
7x,{16}1bhx[16:3],,,7x,{8}7x-3[8:1],4,4xqq4b[4:1]*pp4b[4:1]`C,,,,
{4},Chf[2:1]/B2/B3/E3/B7/E7/B6,,
{8}1bxh,,2b-6[8:1]/6bh,3,2h/5-8[8:1],4h,5h/1^4b[8:1]*^6b[8:1],2,1bh,,
{4}7<2[4:1],2>7[4:1],1bh,8bh,
{8}1b-3b[8:1],8x-4[8:1],1bx-5b[8:1],8bx-6[8:1],1bx^4b[8:1],8bx,
{4}1bx^6b[8:1],1w5b[8:1],1,Chf[4:1],
{8}8bxh,,1b^4[8:1]/5bh,8,1h/6-2[8:1],7h,4x-1b[8:1]*-7b[8:1],5,4bh,,
{4}4b^1[8:1]/5,4/5b^8[8:1],E2f/B1/B2/A1/A2/D2/5xbh,E8f/B8/B7/A8/A7/D8/4bxh,
{4}1b>5<1>5b[4:3]/8bh,5h,1h,5h,
{8}7,{24}7x,6x,5x,{8}4x-8[8:1],4x,,,
{4}4h/6-8[8:1],1h,6-8[8:1]/4h,{8}1h,2h,
{4}3h/5-8[8:1],1h,5-8[8:1]/3h,{8}2h,3h,
{4}4h/6-8[8:1],1,6-8[8:1]/4h,{8}3h,2h,
{4}1h/5-8[8:1],{8}3h,2h,{4}5-8[8:1]/1h,{8}2h,3h,
{4}4h/6-8[8:1],1,6-8[8:1]/4h,{8}1,2,
{4}3/5-8[8:1],1,5-8[8:1]/3h,{8}2,3,
{4}4/6-8[8:1],1,6-8[8:1]/4,{8}3,4,
{4}4h[4:1]/5h[4:1],
{8},{24}7x,6x,5x,{8}4x-8[8:1],4x,,,
{1}1h[1:1]/7h[1:1],
