&title=正信士
&artist=Sohbana
&first=0
&des=Sph!nx-50%
&clock_count=4
&lv_5=14
&inote_5=(289)
{4}
,,,,
{16}
4,,,,,,,,4h[1:1],,,,,,,,
5,,,,5,,,,5,,,,45,,,,
4h[4:1]/6,,,,5,,,,4/5h[2:1],,,,3,,,,
3h[4:1],,,,4h[4:1],,,,5h[4:1],,,,6h[4:1],,,,
5,,,,45,,,,3h[2:1]/4,,,,5,,,,
5h[4:1],,,,6h[4:1],,,,7h[4:1],,,,8h[4:1],,,,
6,,,,8/6h[2:1],,,,5,,,,4h[4:1],,,,
5h[4:1],,,,4h[4:1],,,,3h[4:1],,,,2h[4:1],,,,
3h[4:1],,,,4h[4:1],,,,5h[4:1],,,,4,,,,
6,,,,56,,,,45,,,,34,,,,
2h[4:1],,,,3,,3,,2h[4:1],,,,5,,5,,
2h[4:1],,,,4,,4,,2h[4:1],,,,6,,,,
7h[4:1],,,,6,,6,,7h[4:1],,,,4,,4,,
7h[4:1],,,,5,,5,,7h[4:1],,,,3,,,,
2h[4:1],,,,3,4,,,2h[4:1],,,,4,5,,,
2h[4:1],,,,5,6,,,2h[4:1],,,,6,7,,,
2h[4:1],,,,8,,8,,6,,6,,5,,5,,
4,,3,,2,,1,,8b-4[6:1],,,,,,,,
7-5[8:1],,,,1,,,,2-4[8:1],,,,8,,,,
7-4[4:1],,,,4V26[8:3],,,,,,,,,,,,
2-4[8:1],,,,8,,,,7-5[8:1],,,,1,,,,
2-5[4:1],,,,5V73[8:3],,,,,,,,,,,,
7-5[8:1],,,,1,,,,2-4[8:1],,,,8,,,,
7-4[4:1],,,,4V61[8:3],,,,,,,,,,,,
2-5[8:1],,,,8-5[8:1],,,,3-8[8:1],,,,6-3[8:1],,,,
1-6[8:1],,,,4<2[2:1],,,,,,,,,,,,
3-1[8:1],,,,5,,,,6-8[8:1],,,,4,,,,
3-8[4:1],,,,8V25[8:3],,,,,,,,,,,,
6-8[8:1],,,,4,,,,3-1[8:1],,,,5,,,,
6-1[4:1],,,,1V74[8:3],,,,,,,,,,,,
3-8[8:1],,,,5,,,,6-1[8:1],,,,4,,,,
3-8[4:1],,,,8V25[8:3],,,,,,,,,,,,
6-1[8:1],,,,2-5[8:1],,,,7-4[8:1],,,,3-8[8:1],,,,
6-1[8:1],,,,2z6[2:1],,,,,,,,,,,,
7h[4:1],,,,5h[8:1],,6h[8:1],,4h[8:1],,5h[8:1],,3h[8:1],,4h[8:1],,
2h[4:1],,,,4h[8:1],,3h[8:1],,5h[8:1],,4h[8:1],,6h[8:1],,5h[8:1],,
7h[4:1],,,,5h[8:1],,6h[8:1],,4h[8:1],,5h[8:1],,3h[8:1],,4h[8:1],,
3h[8:1],,5h[8:1],,2h[8:1],,6h[8:1],,1h[8:1],,7h[8:1],,2h[8:1],,6h[8:1],,
2h[4:1],,,,4h[8:1],,3h[8:1],,8h[8:1],,1h[8:1],,6h[8:1],,5h[8:1],,
7h[4:1],,,,5h[8:1],,6h[8:1],,1h[8:1],,8h[8:1],,3h[8:1],,4h[8:1],,
2h[4:1],,,,4h[8:1],,3h[8:1],,8h[8:1],,1h[8:1],,6h[8:1],,5h[8:1],,
8h[8:1],,1h[8:1],,7h[8:1],,2h[8:1],,6h[8:1],,3h[8:1],,5h[8:1],,4h[8:1],,
5h[4:1],,,,3h[4:1],,,,8h[4:1],,,,5h[4:1],,,,
7h[4:1],,,,2h[4:1],,,,4h[4:1],,,,3h[4:1],,,,
8h[4:1],,,,6h[4:1],,,,4h[4:1],,,,2h[4:1],,,,
1h[4:1],,,,7h[4:1],,,,5h[4:1],,,,3h[4:1],,,,
7,6h[32:3],,,3,4h[32:3],,,6,5h[32:3],,,2,3h[32:3],,,
6,7h[32:3],,,3,2h[32:3],,,5,6h[32:3],,,4,3h[32:3],,,
5b-8[1:1],,,,,,,,,,,,,,,,
,,,,,,,,,,,,2,,,,
2-5[8:1],,,,6,,,,2-4[8:1],,,,5,,5,,
2-5[8:1],,,,6,,,,2-6[8:1],,,,7,,,,
7-3[8:1],,,,4,,,,7-4[8:1],,,,3,,3,,
7-5[8:1],,,,2V48[4:1],,,,,,,,,,,,
6-4[8:1],,,,3,,,,6-1[8:1],,,,4,,4,,
8-6[8:1],,,,3,,,,8-4[8:1],,,,2,,2,,
1-5[8:1],,,,7-5[8:1],,,,2-4[8:1],,,,8-4[8:1],,,,
1bq5[4:1],,,,5bq1[4:1],,,,,,,,7,,,,
7-4[8:1],,,,3,,,,7-5[8:1],,,,4,,4,,
7-4[8:1],,,,3,,,,7-3[8:1],,,,2,,,,
2-6[8:1],,,,5,,,,2-5[8:1],,,,6,,6,,
2-4[8:1],,,,7V51[4:1],,,,,,,,,,,,
4h[4:1],,,,7,,7,,5,,5,,3,,3,,
2h[4:1],,,,4,,4,,6,,6,,8,,8,,
1,,1,,1,,1,,2,,2,,2,,2,,
3,,3,,4,,4,,5,,5,,6,,6,,
4h[8:1],,5h[8:1],,3h[8:1],,6h[8:1],,4,,4,,5,,5,,
4,,4,,4z8[4:1]*v1[4:1],,4,,4b,,,,,,,,
7-4[8:1],,,,3,,,,2-5[8:1]/1,,,,6,,,,
7V58[2:1]/8,,,,4,,,,8-4[4:1],,,,,,,,
2-5[8:1],,,,6,,,,7-4[8:1]/8,,,,3,,,,
2V41[2:1]/1,,,,5,,,,1-5[4:1],,,,,,,,
7-4[8:1],,,,3,,,,2-5[8:1]/1,,,,6,,,,
7V58[2:1]/8,,,,4,,,,8-4[4:1],,,,,,,,
2-5[8:1],,,,6-3[8:1],,,,1-5[8:1],,,,7-3[8:1],,,,
8b-4[4:1],,,,4bw8[4:1],,,,,,,,,,,,
2-5[8:1],,,,6,,,,7-4[8:1]/8,,,,3,,,,
2V41[2:1]/1,,,,5,,,,1-5[4:1],,,,,,,,
7-4[8:1],,,,3,,,,2-5[8:1]/1,,,,6,,,,
7V58[2:1]/8,,,,4,,,,8-4[4:1],,,,,,,,
2b-5[8:1],,,,6,,,,7b-4[8:1]/8,,,,3,,,,
2bV41[2:1]/1,,,,5,,,,1b-5[4:1],,,,,,,,
7^5[4:1],,,,5^3[4:1],,,,3^1[4:1],,,,1^6[4:1],,,,
6^3[4:1],,,,3>8[4:1],,,,8-5[1:1],,,,,,,,
,,,,,,,,,,,,3h[4:1],,,,
4b,5,6,,8,,7,,8,,7,,16,,,,
2,3,4,,6,,5,,6,,5,,47,,,,
28,7,6,,3,,4,,3,,4,,25,,,,
17,2,3,,6,,5,,7,,8,,16,,,,
28,3,4,,6h[8:1],,5h[8:1],,8h[8:1],,1h[8:1],,4h[8:1],,3h[8:1],,
7h[8:1],,1h[8:1],,5h[8:1],,3h[8:5],,7v4[8:1],,,,,,,,
5,6,7,8,1/2h[4:1],,,,3,4,5,6,8/7h[4:1],,,,
1-5[8:1],2,3,,1<3[4:1],,,,,,,,,,,,
56,,,,7,,8,,6,,1,,5,,2,,
34,,,,2,,1,,3,,8,,4,,7,,
56,,5,,7,,4,,8,,3,,8,,3,,
1-5[8:1],,,,3-7[8:1],,,,4-8[8:1],,,,,,,,
12,,,,3,,4,,2,,5,,1,,6,,
78,,,,6,,5,,7,,4,,8,,3,,
12,,2,,4,,3,,5,,4,,6,,5,,
{12}47,,36,,25,,14,,25,,36,,
{16}4b-8[1:2]/7,,,,,,,,,,,,,,,,
,,,,,,,,,,,,,,,,
4-8[1:2],,,,,,,,,,,,,,,,
,,,,,,,,,,,,,,,,
4-8[1:2],,,,,,,,,,,,,,,,
,,,,,,,,,,,,,,,,
4-8[2:3],,,,,,,,,,,,,,,,
,,,,,,,,,,,,,,,,
4-8[4:5],,,,,,,,4,,,,,,,,
4,,,,,,,,4,,,,,,,,
4-8[4:5],,,,,,,,4,,,,,,,,
4,,,,,,,,4,,,,,,,,
4-8[2:1],,,,4,,,,4,,,,4,,,,
4-8[2:1],,,,4,,,,4,,,,4,,,,
5h[1:1]/4h[1:1],,,,,,,,,,,,,,,,
,,,,4,5,3,4,,,,,2b/6b,,,,
7-3[8:1],,,,1,,1,,7-5[8:1],,,,3,,3,,
7-2[8:1],,,,7V51[4:1]/4-1[4:1],,,,,,,,,,,,
2-6[8:1],,,,8,,8,,2-4[8:1],,,,6,,6,,
2-7[8:1],,,,2V48[4:1]/5-8[4:1],,,,,,,,,,,,
7-3[8:1],,,,1,,1,,7-5[8:1],,,,3,,3,,
7-2[8:1],,,,7V51[4:1]/4-1[4:1],,,,,,,,,,,,
2-6[8:1],,,,8,,8,,2-4[8:1],,,,6,,6,,
2-7[8:1],,,,2V48[4:1]/5-8[4:1],,,,,,,,,,,,
7-5[8:1],,,,2,,2,,7-3[8:1],,,,2,,2,,
7-5[8:1],,,,8-4[8:1],,,,1-5[8:1],,,,2-4[8:1],,,,
7-5[8:1],,,,2,,2,,7-3[8:1],,,,2,,2,,
7-5[8:1],,,,8-4[8:1],,,,1-5[8:1],,,,2-4[8:1],,,,
7b-5[8:1],,,,8b-4[8:1],,,,1b-5[8:1],,,,2b-4[8:1],,,,
7b-5[8:1],,,,8b-4[8:1],,,,1b-5[8:1],,,,2b-4[8:1],,,,
8h[4:1],,,,6,,6,,4,,4,,2,,2,,
8,,8,,8,,8,,8,,8,,8,,8,,
8b,7,6,,3,,4,,3,,4,,25,,,,
17,2,3,,6,,5,,6,,5,,47,,,,
38,2,1,,7,,8,,7,,8,,16,,,,
25,6,7,,1,,8,,1,,8,,27,,,,
3h[1024:1]/6,4,5,,7,,8,,7,,8,,16,,,,
2h[1024:1]/7,3,4,,6,,5,,6,,5,,47,,,,
6h[1024:1]/3,5,4,,2,,1,,2,,1,,83,,,,
7h[1024:1]/2,6,5,,3,,4,,3,,4,,52,,,,
36,47,58,,1,,2,,1,,2,,38,,,,
27,16,58,,4,,3,,4,,3,,25,,,,
36,47,58,,1,,2,,1,,2,,38,,,,
27,16,58,,4,,3,,4,,3,,25,,,,
1b/6b,27,38,,1,,4,,8,,3,,7,,2,,
1b/7b,26,35,,4,,5,,3,,6,,2,,7,,
1b/8h[4:1],2,3,4,5,,,,1h[4:1]/7b,6,5,4,3,,,,
{12}24,,35,,46,,57,,46,,35,,
{16}2b/4b-8[72#4:3],,,,,,,,,,,,,,,,
E
