&title=Never Give Up!
&artist=nanobii
&first=0.049
&des=双层吉士汉堡 feat.可尔必思
&lv_6=14
&des_6=双层吉士汉堡 feat.可尔必思
&inote_6=
(171){4},,,,2h[8:7],
3,4,{8}5,5,
,3/7,,6-4[16:3],,2,,,{4}7h[8:7],
6,5,{8}4,4,
,6/2,,3-5[4:1],,5-1[16:3],,8,
{4}8h[8:7],2,3,{8}4,4,
,6/2,,7-5[16:3]/2-4[16:3],,,,,{4}1h[8:7],
5,6,{8}7,7,
,8qq1[2:1]/2pp1[2:1],,,,,,,7x,
E2,7/E3,E4,{4}7,{8}7/E1,7x/E2,
7x/E3,E4,{4}7x,7<4[16:3],2,
2x,{8}2/E8,E7,2/E6,E5,2,2x,
2x/E1,E8,2x/E7,E6,{4}2>5[16:3],8,
{8}8x,E4,8/E5,E6,{4}8,{8}8/E5,8x/E4,
8x/E3,E2,{4}8x,8<5[16:3],2-4v5-7[1:1],
,1,1,8,
8,7pp5[2:1],1x,2x,
3bh[8:3],B4/B3,7bh[8:3],B7/E7,
1bh[8:3],B1f/B2/B8,{32}5bxh[4:1],,,,,,,,,B6/B5f/B3/B4,,,,,,,{8}7/1,
7/1,5/3,3/5,6/4,7/5,6/8,7/1,
{16}8,8,8,8,8,8,8,8,{4}8x-4[8:1],8bx/2-6[8:1],
Cf,{8}7x<4[8:1],4-8>2[4:1],7,2-6[8:1],2,4,
{4}5>7[4:1],5/7qq6[16:3],{48},,,,,,,,,,,,D3,A2,D2,A1,D1,A8,D8,A7,D7,A6,D6,A5,
{4}D5/Cf,{24}2x,3x,4x,5x,6x,7x,8x,1x,2x,3x/7x,6x,5x,4x,3x,2x,1/Cf,,,,,,,,,2x,
3,4,5,6,7,8,1,2,3x/7x,6,5,4,3,2,1,8,7,
{4}6/Cf,{8}2x>5[8:1],5-1<7[4:1],2,7-3[8:1],7,5,
{4}4<2[4:1],4/2pp2[4:1],{48},,,,,,,,,,,,D7,A7,D8,A8,D1,A1,D2,A2,D3,A3,D4,A4,
{4}D5/Cf,{24}7x,6,5,4,3,2,1,8,7,6x/2x,3,4,5,6,7,8/Cf,,,,,,,,,7x,
6,5,4,3,2,1,8,7,6x/2x,3,4,5,6,7,8,1,2,
{4}3/Cf,{8}7<4[8:1],8,7x/2-6-4[8:1],1,2x/8<2[4:1],8,
{2}2xpp6[8:3],{8}2x,1x,{4}8>4[8:1],
{32}4x,5x,6x,7x,{8}8x,{24}1x,8x,7x,6x,5x,4x,3x,2x,1x,8x/3x,4x,5x,6x,7x,8x,1x/Cf,,,,,,,,,2x,
3,4,5,6,7,8,1,2,3x/7x,6,5,4,3,2,1,8,7,
{4}6/Cf,{8}2>5[8:1],1,2x/7-3-5[8:1],8,7x/1>7[4:1],1,
{2}7xqq3[8:3],{8}7x,8x,{4}1<5[8:1],
{32}5x,4x,3x,2x,1x,8x,7x,6x,5x,4x,3x,2x,{8}1x/Cf,{32},,,,,,,,7x,8x,1x,2x,3x,4x,5x,6x,
7x,8x,1x,2x,{8}3x/Cf,,,5-8[8:1]/1-4[8:1],2x/6x,{4}5x/1x,
{8}6x/2x,{16}7x,1,{8}8x,{16}2x,4,{8}3,{16}8x,5,{8}6,{16}3x,4,
{8}2,{16}5x,8,{8}7,1/2,3,2/4,6,5/7,
{16}1x,2,3,4,1x,8,7,6,2x,3,4,5,8x,7,6,5,
1x,2,3,4,1x,2,3,4,1x,8,7,6,5,4,3,2,
1x/5xh[8:1],,,6,{8}4,{16}3x,1,{8}2,{16}7x,6,{8}8,{16}2x,1,
{8}3,{16}7x,5,{8}6,2/1,7,8/6,3,4/2,
{16}7,7,{8}8,6/2,7-3[8:1]/1-5[8:1],,1x/7x,,6x/2x,
{16}1,1,{8}2,8/3,7-4[8:1]/4-1[8:1],,4x/7x,,Cf,
,,,,,,,,{4}Ch[8:21],
{8}E7,E6,,,{4}E7,
{8}E6,E5,,,{4}E5,{8}E4,E3,
,,{4}E3,{8}E2,E1,,,E7/D7,
E3/D3,E1/D1,E5/D5,,2h[4:1]/6h[4:1],,,{4}Ch[8:21],
{8}E3,E4,,,{4}E3,
{8}E4,E5,,,{4}E5,{8}E6,E7,
,,{4}E7,{8}E8,E1,,,E3/D3,
E7/D7,E1/D1,E5/D5,,7h[4:1]/3h[4:1],,,A6,
A5,A4,A3,,,A7,A6,
A5,A4,,,A8,A7,A6,A5,
,,A1,A8,A7,A6,,,A6/B6,
B2/A2,E8/D8,B3/A3,,Ch[4:1],,,A3,
A4,A5,A6,,,A2,A3,
A4,A5,,,A1,A2,A3,A4,
,,A8,A1,A2,A3,,,A3/B3,
B7/A7,E2/D2,B6/A6,,7/3,,,4x/5x,
5x/4x,{4}5xh[8:1]/4xh[8:1],{8},,6/3,6/3,
{2}3h[8:1]/6h[8:1],{8}7/2,7/2,{4}7h[8:1]/2h[8:1],
{8},,1v4[1.4035##0.1754]/8v5[1.4035##0.1754],8/1,{2}8h[8:3]/1h[4:1],
{4}2x/7x,1bx/8bx/Cf,3x/2x,5x/6x,
7/1,3/4,7/5,8h[8:1]/1h[8:1],
1/8,{8}7x/3x,2,7,2x/6x,3,{16}5,4,
6x,3,6,3,7,2,7x,2,6,1,5,2,6x,3,7,4,
{24}8x,4,8,4,8,4,{4}8/Cf,{8},,,7x/3x,
{4}3x-8[8:1]/7x-4[8:1],Cf/3x-6[8:1]/7x-2[8:1],3x/7xV51[16:3],7x/3xV52[16:3],
3x>5[4:1],5xpp3[8:3],1,{24}1x,8,7,6,5,4,
3,2,1,8/4x,7/3,6/2,{4}1bx/5bx,{8}1,{32}7/1h[8:1],6,{16}5,{32},,,,2/8h[8:1],3,{16}4,
{32},,,,7/1,6,5,4,3,2,1,8,{8}7,4,{32}8/4h[8:1],7,{16}6,{32},,,,1/5h[8:1],2,{16}3,
,,{8}2/6,{4}6-3[8:1]/2-7[8:1],6/2V48[16:3],2/6V47[16:3],
6<4[4:1],4qq6[8:3],8,{24}8x,1,2,3,4,5,
6,7,8,1/5x,2/6,3/7,{4}8bx/4bx,{8}1,{32}2/1h[8:1],3,{16}4,{32},,,,7/8h[8:1],6,{16}5,
{32},,,,2/1h[8:1],3,4,5,6,7,8,1,{8}2,4,{32}1/4h[8:1],8,{16}7,{32},,,8/5h[8:1],1,2,,,,,,,{8}7/3,
{4}7/3bx-5[8:1],7-5[8:1]/3-8[8:1],7/3V51[8:1],
3/7<2>7[16:7],2,7,{24}8,1,2,3,4,5,
6x,7,8,1,2,3,{4}4bx/Cf,{8}8,{32}6/8h[8:1],5,{16}4,{32},,,,3/1h[8:1],4,{16}5,
{32},,,,7/8h[8:1],6,5,4,3,2,1,8,{8}7,5,{32}8/5h[8:1],1,{16}2,{32},,,1/4h[8:1],8,7,,,,,,,{8}7/3,
{4}2/6-4[8:1],2-4[8:1]/6-1[8:1],2/6V48[8:1],
6/2V47[4:1],7V52[4:1],2,{24}1,8,7,6,5,4,
3,2,1,8,7,6,{4}5bx/Cf,{8},B6/A6f/E6,,,B2/E3f/D3,
,,Cf/B6/B2,,,5-8[8:1]/4-1[8:1],3/6,
{4}5b/4b,{8}7x/2x,{16}8,8,{8}1,7/3,4,{16}6,6,
{8}5,7/1,8,{16}3,3,{8}1,6/2,8,3/5,
1,6/4,{16}7x,6,5,4,2x,3,4,5,1x,8,7,6,
8x,1,2,3,7x,6,5,4,2x,3,4,5,1x,2,3,4,
5,6,7,8,{8}1x/3xh[8:1],{16}4,4,{8}2,8/1,6/4,{16}5,5,
{8}3,7/1,5/2,{16}3,3,{8}4,6/1,4,7/2,
5,8/3,7,7-3[8:1],6,7x>2[8:1],4,7x/4w8[8:1],
3,4bx,,,6/2,{16}5,4,,1,{8}8x/2x,
{4}7x-4[8:1]/3x-8[8:1],{32}7b/3b>3[8:13]*>7V53V17b[2:5],B6/B2,Cf,B8/B4,
E
