&title=鳥の詩 (Short Ver.)
&artist=Lia
&first=0.084
&des=魚
&lv_5=13+
&inote_5=(122.1)
{8},,,,
{8}6<3[4:3],,,,,,,,4q5[4:3],,,,,,,,8pp7[4:3],,,,,,,,1qq2[4:3],,,,
{8},,,,7qq4[8:6],,,,,,,,1qq4[8:6],,,,,,,,1q7[4:2]*q3[4:2],,,,,,,,
{16}6,2,5-8[8:1],3,,,1,,,,
{8}2,3,5,6/2-5V73[4:3],,,,,,,,5pp1[2:1],,,,,,,,4<3[8:4]/8,,,,,,,
{16}E4,E5,E6,,
{8}7x-5[8:1],4,2,,
{8}1,5,2,3/7-4V26[4:3],,,,,,,,4qq8[2:1],,,,,,,,5>6[8:4]/1,
{16},,,,,,,,
{16},,,,
{8}3,3h[4:1],,4h[4:1],,5h[4:1],,7h[4:1],,
{16}1,,8,,4,7,,3,5h[2:1],,2,,,,3,,4,,,,
{8}6<1[4:1],,1>4[4:1],,4<7[4:1],,7pp5[2:1],,2,
{16}3,3h[16:5],,,,,,,
{16}2,4,3,,
{8}5,2,7-5[8:1],,1,2,3,
{16}8/4,,2,,5,3,,6,4h[2:1],,7,,,,6,,5,,,,
{8}4,3,2/6,7,4/8,3,
{16}2b/6b,,1,,7,8,1/6h[8:1],,
{32}2,3,4,5,6,7,8,1,
{16}2/5-8[8:1],,4,,5,,3,3,,7,7,3,,5,4,,3/7,,2,,5/1,,
{16}6,,8,7,,1p5[8:1],8,,3,1,,,2,2,4h[8:1],,1,,6,8h[8:1],,5,2,2,1,1,
{32}3,4,5,6,7,8,1,2,
{16}3/5,,4>2[8:1],,6,,7<5[8:1],,,,1,,,,2,,
{16}7/3,,5p1[8:1],,6,,8>4[16:3],,,,7,,,,8,,
{16}7/4,,5-1[8:1],,7,,6<8[8:1],,,,2,,,,3,,
{16}8/4,,7,,6/4,,
{16}3/7,,2,,5,4,7/3,,8/2,,
{16}6,,5<7[8:1],,2,,1>3[8:1],,,,8,,,,7,,
{16}2/6,,4q8[8:1],,3,,1<5[8:1],,,,1,,,,
{8}3,5/1,2,3/4,5/1,
{16}6,8,6,8,7,1,7,1,8,2,8,2,1,3,8,4,7,5,6,4,5,3,4,2,
{16}6,,5<7[8:1],,3,,2>4[8:1],,,,8,,,,7,,
{16}2/6,,4q8[8:1],,3,,1<5[16:3],,,,2,,,,1,,
{16}2/5,,4-8[8:1],,2,,3>1[8:1],,,,7,,6>4[8:1],,,,
{16}1,,2,,3/5,,
{16}6/2,,7,,4,5,2/6,,1/7,,
{16}3,,4>2[8:1],,6,,7<5[8:1],,,,1,,,,2,,
{16}7/3,,5p1[8:1],,6,,8>3[8:1]*<5[8:1],,,,8,,,,2,,
{16}1v4[8:1]*q5[8:1],,,,1,,,,3,,7x,7,4,6,3,7,
{16}4,6,4,6,5,7,4,8,3,1,2,8,1,7,2,6,
{16}4,,5/3,,4/6,,5,5,1-5[8:1],,4,4,1-3[8:1],,6,6,1-5[8:1],,4,4,1<6[8:1],,7,,
{16}1>4[8:1],,3,,1-5[8:1],,7,,1v7[8:1],,2,2,,,3,3,5<8[8:1],2,4,1,,2,2,,
{16}1-5[8:1],,4,,3,,2,,1s5[4:1],,6,6x,,,,,7,,6,,7/4,,3,3,7-5[8:1],,2,2,
{16}7-1[8:1],,4,4,7v4[8:1],,2,2,7qq6[16:3],,1,1,7,,,,8>4[8:1],,1,,5-1[8:1],,,,4,,4,,
{16}3,,8/2,,1/7,,2/6,,
{16}5,3,5,3,4,2,5,1,6,8,7,1,8,2,7,3,
{16}5,,4/6,,5/3,,4,4,8-4[8:1],,5,5,8-6[8:1],,3,3,8-4[8:1],,5,5,8>3[8:1],,2,,
{16}8<5[8:1],,6,,8-4[8:1],,2,,8v2[8:1],,7,7,,,6,6,4>1[8:1],7,5,8,,7,7,,
{16}8-4[8:1],,5,,6,,7,,8z4[4:1],,3,3x,,,,,2,,3,,2/5,,6,6,2-4[8:1],,7,7,
{16}2-8[8:1],,5,5,2v5[8:1],,7,7,2pp3[16:3],,8,8,2,,,,1<5[8:1],,8,,4-1[8:1],,,,5,,5,,
{16}8,8,5pp6b[16:3],,1x,,
{32}8bx,1x,2x,3x,4x,,
{16},,,5b/3b,,,,
{32}4/8,5,6,7,8,1,2,3,4/7,6,5,4,3,2,1,8,
{16}2>5[16:2]/7,,3,,8-4[8:1]/2,,7,,3-6[8:1]/8,,2,,1-5[8:1]/3,,8,,1/3qq4[4:1],,2,,
{16}6/3,,7,,8-4[8:1],,7,,2/8,,1,,8<5[16:2]/4,,6,,8>3[8:1]/4,,2,,
{16}8/4,,7,,8-4[8:1]/2,,6,,7>2[8:1]/8,,6,,7pp5[8:3]/3,,4,,
{16},,4,,3,,2,,1/7-5[8:1],,8/2,,7/3qq4[4:1],,2,,7/3,,6,,7,,5,,
{16}2/1,,3/5,,2/6<2[16:3],,7/4,,6/2V84[16:3],,3,,4,,3,,
{16}2,6,2,6,3,7,3,7,4,8,4,8,5,7,4,6,3,,6,5,8,,3,4,2,2,6,5,7,7,4,4,
{16}6b-4[16:2]/2b,,3,,1-5[8:1]/6,,2,,6-3[8:1]/1,,7,,2-5[8:1]/6,,1,,2/6pp4[4:1],,7,,
{16}3/6,,2,,1-5[8:1],,2,,7/1,,8,,1>4[16:2]/5,,3,,1<6[8:1]/5,,7,,
{16}1/5,,2,,1-5[8:1]/7,,3,,2<7[8:1]/1,,3,,2qq4[8:3]/6,,5,,
{16},,5,,6,,7,,8/2-4[8:1],,1/7,,2/6pp5[4:1],,7,,2/6,,3,,2,,4,,
{16}7/8,,4/6,,7/3>7[16:3],,2/5,,3/7V13[16:3],,6,,5-1b[8:1],,5,,
{16}4b,,4,,3,8,2,7,1,,8/6,,7,1,8,2,1b,,7,5,6,4,5,3,4,2,7,8,6,1,5,2,
{16}4b,4,3,3,7,7,1,1,4,4,2,2,8-6[8:1],8,1-5[8:1],1,8b-4b[8:1],,1,,8,,1,1,
{32}8x,7x,6x,5x,4x/8,1,2,3,4/1,8,7,6,5,4,3,2,
{8}1b-5[8:1],4,3<7[4:1],2,1,1,2qq8[16:3],3,4>1[8:1],4,7,6,5-8[8:1],1,2,3,
{8}4qq3[16:3],5,6,7,8V26[4:1],2,3,4,5>1[16:3],5,6,7,8-4[8:1],8,1,2,
{8}1-5[8:1],6,7<3[16:3],8,2,1,8pp2[16:3],7,6<1[8:1],5,3,4,5>2[8:1],1,8,7,
{16}6,,1/5,,3,4,2,4,7/8,,2,1,4,5,3,4,2b,,1,4,2,5,3,6,4,8,2,1,3,8,4,7,
{8}5b<4[2:1],,,,,,,,
{8}1<2[2:1],,,,,,,,
{2}8>7[2:1]*<1[2:1],,
{2}6V47[2:1]/3V51[2:1],,
{2}E7/B7/A6/B6/D7/A7,
{32}B8/B1/E1/C,,,,,,,,,,,,,,,,
{32},E3/B2/B3,,,,,,,,,,,,,,,
{32},,E5/A4,,,,,,,,,,,,,,
{32},,,B3,B4,E5,,,,,,,6x,,,,5x,,,,4x,,,,,3x,,,,,2x,,,,,,1x,,,,,,D2,A2,D3,A3,D4,A4,
{4}D5h[2:1],
E
