&title=青ノ栞歌
&artist=FantasticYouth × ウォルピスカーター
&first=2.88
&wholebpm=170
&demo_seek=46.2
&demo_len=29.5
&lv_5=14
&des_5=Ragna
&inote_5=(170){8}
2V46[2:1]/6h[8:1],,,,8,,,,
7V53[2:1],,5-3[4:1],,3,,1,,
2h[8:3],4h[4:1],,,3h[8:3],5h[4:1],,,
2V41[10000:5766],,4-1[10000:3266],,8,,5,5,
2^4[4:1],,4qq4[8:3],,5,,6,,
7^5[4:1],,5pp5[8:3],,4,,3,,
1^4[4:1],,4qq4[8:3],,5,,6,,
8^5[4:1],,5pp5[8:3],,4,,3,,
2^4[4:1],,4qq5[8:3],,5,,6,,
7^5[4:1],,5pp4[8:3],,4,,3,,
1^4[4:1],,4qq5[8:3],,5,,6,,
8^5[4:1],,5pp4[8:3],,4,,3,,{8}
2-4[8:1],2,5,6,7-5[8:1],7,4,3,
2V48[4:1],2,5,6,7v4[8:1],,71,,
2pp5[8:3],2,5,6,7,7h[4:1],,4qq5[16:5],
,6,6,7,8-4[8:1],,48,,
3qq8[8:3],3,5,6,7,7h[4:1],,1-5[8:1],
1,6V48[4:1],6,3,2,1b,,7-3[8:1]/3,7/3-7[8:1],,
1,1^4[8:1],,8^5[8:1],,3h[4:1],,4,
2,18,27,3V14[4:1]/6,5-8[8:1]/4,,,,{12}
7,5,6,2,4,3,7,5,6,{4}2^5[8:1],
5V31[4:1],1>5[4:1],6,8,{12}
7,5,6,2,4,3,8,5,6,{4}1>5[4:1],
5V38[4:1],8>5[4:1],6,8,{12}
7,5,6,2,4,3,7,5,6,{8}2^5[16:3],4^7[16:3],
6^1[16:3],8^3[16:3],,5,6,7,48,7^5[8:1],
5,7,2^4[8:1],4,2,8^5[8:1],1^4[8:1],8,
1,6h[4:1],,5,7,18,27,3-5[8:1],
5,3,7-3[8:1],3,7,1-7[8:1],7,1,
5-1[8:1],1,5,3-7[8:1],8,3,6-4[8:1],8,
6,2-6[8:1],6,2,8^5[8:1],4^1[8:1],8-4[8:1],4,
8b,,,,,,{48}1b/8b,27,36,{16}45,,,{48}
1b/8b,27,36,{16}45,,,{8}37,7h[4:1]/3,,1-5[8:1],5,1,
7V51[4:1],4-2[8:1],7,4,,38,4b/7h[4:1],,
8,6h[4:1]/1b,,5,74,3bqq4[4:1]/8,,3/4V68[4:1],
,8V24[4:1],,4,5-1[8:1],6,7/5b,,
8-6[8:1],2-4[8:1],8-4[8:1],2,8,1-3[8:1],7-5[8:1],1<2[16:5],
7,1b,,,,8h[8:1],{32}1,2,3,4,6h[8:1],,,,
1,2,3,4,8h[8:1],,,,1,2,3,4,{8}6h[8:1],1-5[8:1],8,1^4[8:1],6,
1,{32}8b-4[8:1],7-3[32:3],6,5,{8},7b/8b,,,5bw1[8:1]/1b,,
5b,,7-3[8:1],7,2^7[8:1],2,5-8[8:1],5,
1q4[16:5],1,4,5,6,7,8h[4:1]/5b,,
1,2h[4:1]/7b,,4,15,8/6bpp5[4:1],,6/5V31[4:1],
,1V75[4:1],,5,4-8[8:1],3,2/4b,,
1-3[8:1],7-5[8:1],1-5[8:1],7,1,8bV61[4:1],,1>7[4:1]/8,
2,3b,,,,18,2h[4:1]/7b,,
4,1b/5h[4:1],,4,36,2b-6[8:1]/7,,7-3[8:1]/2,
,72,,18,2b/7b,3b/6b<5[2:3],5b/4b>5[8:11],,
,,,,,,,,
,,,,,,{96},{8}8^5[8:1],,
4,3^8[8:1],,7,6^3[8:1],,2,1^6[8:1],
,5,4w8[8:1],,4,,26,,{256},{12}
3,,3,4,,4,1,,1,7^4[8:1],,,
4q1[4:1],,,1<5[4:1],,,4,,,1,,,
{8}2,2h[24:7],{12},,4,1,6,4,7<3[4:1],,,
3q1[4:1],,,1<4[4:1],,,3,,,1,,,{256},{12}
2,4,3,7,5,6,{8}2-4[8:1],4V28[4:1],2V86[4:1],8V64[4:1],
6V42[4:1],4-2[8:1],,8,7,6,15,2-4[8:1],
4,2,7-5[8:1],5,7,1-5[8:1],8-4[8:1],1,
8,2h[4:1],,1,38,47,{4}
6qq7[4:3]/5,,1h,,2pp1[4:3],,8h,{8}7,6,{4}
5pp4[4:3],,1h,2,{2}3qq4[4:3],8h,
6V48[32:29],1h,8V61[32:29],4h,
1s5[32:29],4h,5V73[32:29],1h,
3V58[32:29],1h,8s4[32:29],1h,
4V68[32:29],1h,4h[2:1],8b,{4}
7<8[4:7],6>8[2:3],5h,,3>4[4:7],2<4[2:3],1h,,
7<8[4:7],6>8[2:3],5h,,3>4[4:7],2<4[2:3],1h,,
7<8[4:7],6>8[2:3],5h,,3>4[4:7],2<4[2:3],1h,,
7^4[4:3],6^4[2:1],5h,,1h[8:7],,{8}8b,8b,8b,8b,
72,6-4[8:1],4,6,1-5[8:1],6,1,8-2[8:1],
3,8,5-1[8:1],8,5,7-3[8:1],3,7,
1-7[8:1],7,1,5-1[8:1],4,5,2^5[8:1],8^5[8:1],
2-6[8:1],8,2b,,,,,,{48}
1b/8b,27,36,{16}45,,,{48}1b/8b,27,36,{16}45,,,{8}
37,3h[4:1]/7,,5^8[8:1],1,5,3V52[4:1],1-6[8:1],
3,1,,15,3b/7h[4:1],,5,3h[4:1]/6b,
,1<1[2:1],28,7/1b,,1V75[4:1],,5V38[4:1],
,8,7-3[8:1],6,7b/5,,6-4[8:1],1-5[8:1],
6-1[8:1],1,6,3-5[8:1],8-4[8:1],3>5[4:1],8,3b,
,,,8h[8:1],{32}1,2,3,4,6h[8:1],,,,
1,2,3,4,8h[8:1],,,,1,2,3,4,{8}6h[8:1],1-5[8:1],8,1^4[8:1],6,
1,{32}8b-4[8:1],7-3[32:3],6,5,{8},7b/8b,,,
5bw1[8:1]/1b,,5b,,7-3[8:1],7,1-5[8:1],1,
6-1[8:1],6,3qq8[16:5],3,8,7,6,5,
1h[4:1]/4b,,8,6h[4:1]/3b,,8>8[2:1],17,2/8b,
,8V24[4:1],,4V61[4:1],,1,2-6[8:1],3,
2b/4,,3-5[8:1],8-4[8:1],3-8[8:1],8,3,6bV84[4:1],
,6/4>6[4:1],3,2b,,,,
45,2h[4:1]/7b,,1,7h[4:1]/4b,,5-1[8:1],64,
3b-8[8:1]/5,,7-3[8:1]/3,,72,,45,3b/6b,
2b/7b<8[2:3],1b>8[8:11]/8b,,,,,,,,,,,,,,,,{96},{8}
1q5[8:1],,5,6q2[8:1],,2,3q7[8:1],,7,8q4[8:1],,4,5w1[8:1],,5,,
7h[8:1]/3-6[4:3],,,,8,,,,
7h[4:1],,4h[2:1],,5h[4:1],,,,
6h[8:3],5h[4:1],,,3h[8:3],4h[4:1],,,
2h[4:1],,5h[2:1],,4h[8:3],,,,
{1},E
