&title=Link0 - iL-Artifact
&artist=link*0
&first=0.061
&des=阿库娅
&lv_5=14
&des_5=阿库娅
&inote_5=
(184){4},{8},,,,,,6,
5,4,3h[8:5],,,,,6,
5,4,3h[8:5],,,,,6,
5,4,3/6h[2:1],,,,3,
4,5h[2:1],{4}4h[2:1],{8},,,,3,
4,5,6h[8:5],,,,,3,
4,5,6h[8:5],,,,,3,
4,5,6h[4:1],,3,4,5,
6h[8:3],,,1h[8:3],,,{4}3>6[1:2],
{8},,4,5,,5,{4}4,
,6,,3>6[1:2],
{8},,5,4,,4,{4}5,
,6,,3>6[1:2],
{8},,4,5,,5,{4}4,
,6,,3>6<3[1:2],
{8},,5,4,,4,{4}5,
,3,,6,
8-5[8:1],8/4h[8:3],{8},1,{4}4/7h[8:3],
{8},1,{4}6/4h[8:3],{8},8,{4}5/7h[4:1],
4-1[16:1],4/8h[8:3],{8},5,{4}8/3h[8:3],
{8},5,{4}2/8h[8:3],{8},4,{4}1/3h[4:1],
8v3[8:1],8/1h[8:3],{8},4,{4}8/5h[8:3],
{8},8,{4}4/1h[8:3],{8},7,{4}8-2-5-3[8:5]/6-4-7-1[8:5],
,,,Ch[16:7],
{16},,,E8/E4,,,2,1,3,8,{8}4-8[8:1],,4/7-3[8:1],
,7/2-6[8:1],,2/1<6[8:1],,1/4-1[8:1],3,4/8-4[8:1],
7,8/2-6[8:1],3,2,8h[8:5],5,,4,
,3,{16}B7,B6,{8}E6`2,5xh[8:1],3,6h[8:1],4,
7,6/4,2,3/5,7,4h[8:1]/6h[8:1],,5h[8:1]/3h[8:1],
{16},,2-4[8:1],4,{4}2-8[8:1],{8},5,5>2[8:1],7,
5,1,8<5[8:1],2,8,3h[8:1],1,{16}3,8,
4,7,{8}5h[8:1],6,5/7h[8:1],4,7/3h[8:1],6,3/5,
4h[8:1],3b,{16},1b,,,{8}7b,7V53[4:1],,3<7[4:1],
,2V46[4:1],,,,8h[8:1],7,8h[8:1],
1,8h[8:1],2,8h[8:1],3,8/3,{16}2-6[8:1],8,4,6,
{4}2-4-8[16:3],2/1w5[8:1],1,{8}2,3,
4h[8:3],{16}1,8,7,6,5,3,2,1,{8}7b/8h[2:1],,6,
,5,{16}E1,B1,{8}B2`4,3xh[8:1],1,1h[8:1],8,
8h[8:1],6,6h[8:1],4,4h[8:1],1b,2,{16}8,3,
8,3h[16:3],{8}8h[8:1],,2/7,6/1,5/8h[16:5],{16},3,,5,
,7,,1,8,3,5,5/4,,,{8}3b/6b,{4}6b<3[4:5]/3b>6[4:5],
{8},,,,,,,,,,,5/4,
,7b/2b,{4}7b<2[4:5]/2b>7[4:5],
{8},,,,,,,,,,,B7/B6/B2/B3/E3/E7/C,
,1/2,1/2,{16}3,4,
5,6,7,8,1,2,{8}3/8,3/8,{16}1,2,3,4,5-1[8:1],6,
{8}7-5[8:1],5-3[8:1],,,,7/1,7/1,{16}6,5,
4,3,2,1,8,7,{8}6/4,6/4,{16}5,6,7,8,1,2,
3,4,{8}5/6,7/6,8/7,1/8,1/2b-5[0.2446##0.163],{16},8b-4[0.2446##0.163],,,1b-5[0.2446##0.163],
,,7b-4[0.2446##0.163],,,{8}2b-6[0.2446##0.163],6b,7b-3[0.2446##0.163],{16},1b-5[0.2446##0.163],,,{1}5bs1[2:1],
{8},,,,,Cfh[1:1],,,,,,B5/E5,
B7/E7,B1/E1,,,,,,,,,,,,,,,,3,
,,6,
5<7[16:3]*>2[16:3],,5,,1x>4[4:1],,4<7[4:1],
,7>5[2:1],,2V86-3-7-2V46[16:61],,,,,,,,,,
||这是一个标记~
,
,,,,,,,,,,,,,,,,,,,8-2[16:1]
||这是一个标记~
,
{16},,8
||这是一个标记~
,
||这是一个标记~
,,,{8}4/3h[4:1],,1,
,4/5h[4:1],,2,,6h[4:1],5,3h[4:1],
4,7h[4:1],6,2h[4:1],3,8<3[16:5],,,3,
1<6[16:3],,1/5,,5-2[8:1],,5/3-7[8:1],
,3/8-4[8:1],,8,,3h[8:3],4,5,
6h[2:1],5,4,3,2h[8:3],3,4,5,
6h[2:1],2,3,4,5h[2:1],6,7,8,
1h[2:1],5,6,7,8h[2:1],4,5,6,
7h[8:3],3,,5-8[8:1],,8xp6>3[8:11]/5xq7>2b[8:11],{1},{4},,{8},{16}1,
2,3,4,{8}5/8h[8:1],{16},,6b,5,
6,5,6b,8,6,8,6b,4,6,4,6b,5,{8}7,{16}3,4,
{8}2,{16}7,5,6,4,5,3,4,2,{8}8-4b[16:1],,8,
{16},,1b,1,1,1,1b,1,1,1,1bs5[4:1],1,1,1,{8}1b,
{16},,B5,B3,B7,B1,8x,8,{8}8,{32}8b-4-8[4:1],7x/1x,2x/6x,3x/5x,,,,,{8}
||这是一个标记~
,
||这是一个标记~
,3h[16:1],3h[16:1],1/3h[16:1],3h[16:1],7/3h[16:1],3h[16:1],5/3h[16:1],
3h[16:1],3h[16:1]/4-7[8:1]*-1[8:1],{32},,,,,,,,,,,,8b-4[8:1],1/7,2/6,3/5,,,,,{8}8,
,3/5,{16}4,4,4b,4,4,4,4b,4,4,4,4b,4,
4,4,{8}4bx/Cfh[2:1],,,,,,,,,,,,,{4}6/5,
4/3,{8}4/2,5/3,4/6,5/7h[8:3],,,1h[8:3],
,,4,{4}4/1,3/6,
5/8h[4:1],{8}1h[8:1],5h[8:1],3h[8:1],4h[4:3],,,1,
,,2,{4}2/4,3/1,
2/8h[4:1],{8}1h[8:1],7h[8:1],3h[8:1],5h[4:3],,,1,
,,3,{4}5/3,3/5,
{8}4/6,4/6h[16:3],{16},1h[16:3],,,{8}4,3/5x,6,2,
1/7x,6,4,5/3x,2,2x/5h[8:1],2,2,
2x/4h[8:1],2,2,2x/7h[8:1],2,{16}2/7x,6,5,4,3,2,
{4}1x<6[8:1]*-6[8:1],1x>4[8:1]*-4[8:1],1x,{8}7/5,6h[8:1],
8,{16}1,2,3,4,5,6,7,8,{8}1q5[8:1]*v6[8:1],,1,
{16},,7,5,6,3,5,4,{8}6h[4:1],5,4,3,
2h[4:1],3,7h[4:1],6,1h[4:1],3,{16}7,8,7,8,
7,8,{8}6,{16},1-5[8:1],,,{2}2h[8:7],
{8},,,,,8bV64[8:1],,8/3V17[8:1],
,3/6V42[8:1],,8-4[8:1],,8<5[8:1],1,8,
1,{16}3,4,{8}2,{16}6,5,{8}7,2-5[8:1],5-1[8:1],1-6[8:1],
6,{16},,,,7<2[4:1],8,{8}7h[4:1],,,8,
8,2-4[8:1],1-5[8:1],2,1,8bw4[8:1],,8,
{16},,8x,8,{8}8,{16}2,4,3,6,4,5,3,4,3,7,
5,6,{8}8-4[8:1],7-5[8:1],8,7,{16}1,2,{8}3h[8:1],1,
{16}4,8,4,7,4,6,4,5,4,3,4-8>1[16:3],2,4,1b-4-7b[16:3],{8}4,
,6x,6x,8x,8x,7b-4[8:1],,7/2-7[8:1],
,2/5-2[8:1],,5/1>4[8:1],,1-5[8:1],8,1/7-3[8:1],
6,7<4[8:1],1,7,,1b,{16}7,8,6,1,
{4}2-4[8:1]/5-1[8:1],5/2w6[8:1],2b,{16}8x,8,{8}8h[8:1],
7,5,{16}3,4,2,5,1,6,{8}8-4b[12:1]*-5[16:1],,8,
{16},,7,5,6,3,5,4,6,5,6-3[8:1],2,4,3,{8}6b,
B1/E1,E3/B3,{16}6x,5,3x,4,7x,6,{8}1b,8,{24}7x,7,,1x,
1,{48},,{16}4b,3,5,2,4b,3,5,2,{8}4bh[8:1],{12}2,{24}2,8x,,8,
{12}6x,{24}6,1,{48},,,,{16}3,3,{8}8-4[12:1],,8b,{16},,,,4,
6,{8}5,{16},,,,,,E1
||这是一个标记~
,B8,B7,E7,E3,B2,
B1,E1,E5,B4,B3,E3,{8}C
||这是一个标记~
,,5,{16},,E5
||这是一个标记~
,B4,
B3,E3,E7,B6,B5,E5,A1,E1,E8,A7,E2,B1,B7,E7,E3,B3,
B5,E6,A3,E4,E5,A5,{8}C
||这是一个标记~
,,5,{16},,,,3,
4,{8}3,,5,,7/8,7/8,8/7,
,1h[4:1],,2,,5,{16},,,,7,
8,{8}7,,5,,3/4,{16},6/7,,,{8}1/2,
6,{16}6,7,,7,{8}8,8-5-2-7-4[8:51]*-3-6-1-4[8:51],{1},,,,,,{4},,,{16}6,
5,{8}4h[16:7],{16},1,,1,
,1,,5,4,6,3,4,{8}2,C,
E
