&title=熱帯夜の祭り (feat. Pica)
&artist=M2U/Pica
&first=0.04
&des=Locks
&des_5=Locks
&lv_5=13+
&inote_5=(200){4},,{8}2,4,{4}5,
{8},2,4,5,6,{4},{8}3,
4,5,{4}2h[4:1],4h[4:1],5h[4:1],
{8}7,{4},{8}1,2,3,{4}7h[2:1],
{8},5,4,3,7h[8:3],{4},{8}4,
6,6,{16}3,4,{8}5,7,4,6,5,
{4}8,1,{8}2h[4:1],4,{4}5,
{8},2h[8:3],4,5,6,{4},{8}3,
4,5,{4}2h[4:1],4h[4:1],5h[4:1],
{8}7,{4},{8}5,6,7,{4}2h[2:1],
{8},4,5,6,2h[8:3],{4},{8}4,
5,6,2/5,{16}3,4,{8}3,6/5,7,5/6,
4,5,{16}4,3,{8}2,{16}8<3[4:1],7,{8}6,{4}8,
,{16}8<3[4:1],7,{8}6,{2}8,
{16}8,7,{8}6,{4}3/4,5/6,7qq4[2:1],
{2}1h[4:1],{16}1>6[4:1],2,{8}3,{4}1,
,{16}1>6[4:1],2,{8}3,{2}1,
{8}1,5,2,4/3,8,7,6/5,7,
{16}2,3,{8}4,{4}8/1,{8}2>6[4:1],5h[8:3],{4}2,
,{8}2>6[4:1],5h[8:3],{2}2,
{8}3,4,{4}8/7,6/5,2qq5[2:1],
{2}6h[4:1],{8}7<3[4:1],4h[8:3],{4}7,
,{8}7<3[4:1],4h[8:3],{2}7,
{8}7-4[8:1],8,7,2-5[8:1],1,2,8,7,
6/8pp5[8:3],8,{4}8,,7<3[2:1],
,3q8[2:1],{2}2,
{4}3h[4:1],4h[4:1],5h[4:1],6h[4:1],
{2}7>5[2:1],{4}5pp3[4:3],6,
7,{8}8,1,1,{4},{8}2h[4:1],
{16}8,7,{8}6,{4}5pp1[4:3],,,,3h[4:1],
2h[4:1],1h[8:3],
{8},{16}7,6,{4}5h[4:1],1,{8}6,7,
3h[4:1],4,{4}5,{8}6,7,3h[4:1],4,
{4}5,2h[4:3],8,5,
7h[4:5],1,{8}4,{4},{8}3,
{4},2z6[4:3],{1},{4}4/7h[2:1],
3,
{16}3,2,1,8,7,6,5,4,{4}3h[2:1]/8<4[4:1],8,
,5/6,{16}6/4,7,8,1,2,3,4,5h[16:9],
{4}2-6[4:1],2,,8/3,
{16}2/1,3,4,5,6,7,{8}8,{4}5h[8:7],8h[8:1],
8,{16}7,6,,4,3,2,1,8,{4}7-3[8:1],
{2}7b,{16}2<5[4:1],3,{8}4h[8:3],{4}2,
,{16}2<5[4:1],3,{8}4h[8:3],{2}2,
{16}1<6[4:1],2,3,4,{4}1>4[4:1],1-6[4:1],1,
{16}1,2,3,4,5,6,7,8,{4}5/1,{16}8>5[4:1],7,6,5,
{2}8,{16}8>5[4:1],7,6,5,{4}8,
{8}7,6,6,2/5,{16}3,4,{8}3,6/5,5/6,
4b>8[16:3],3,{4}4/2,{16}7,6,{8}5>2[4:1],{4}5h[4:1],
,{16}6,5,{8}4>1[4:1],{2}4h[4:1],
{16}5>2[4:1],6,7,8,{4}5<8[4:1],5-2[4:1],5,
{16}5,6,7,8,1,2,3,4,{4}1/5,{16}1<5[4:1],2,3,4,
{2}1,{16}2<6[4:1],3,4,5,{4}2,
{16}3,4,{8}3,1>3[8:1],5,1-5[8:1],6,1>8[4:1],7,
{2}1,{16}5>8[4:1],6,{8}7h[8:3],{4}5,
,{16}4>7[4:1],5,{8}6h[8:3],{2}4,
{16}5,6,{8}7,{4}8/3-1[4:1],1-4[4:1],4-8[4:1],
8-5[4:1],{8}6,6,{4}6h[8:1],{16}1<5[4:1],2,3,4,
{2}1/5,{16}8>4[4:1],7,6,5,{4}8/4,
{8}5,6,7/3,4,5,6/2,3,4,
5/7,7,6,5,{16}4/8<5[4:1],3,2,1,{4}8h[4:1],
,{16}4/8<5[4:1],3,2,1,{2}8h[4:1],
{16}4-7[4:1],3,2,1,{4}7-2[4:1],2-5[4:1],4,
{16}4,3,2,1,8,7,6,5,{4}4/8,{16}8<3[4:1],7,6,5,
{2}8,{16}7<2[4:1],6,5,4,{4}7,
{8}8,7,6/1b,2,3,4/8b,7,6,
7bv6[8:1]/3bv2[8:1],2/6,{4}7/3,,6h[2:1],
{2}5h[4:1],{4}3h[2:1],4h[4:1],
,2q5[1:1],4,5,
6,7,8h[2:1],3,
{8}4,{4},{16}6,5,{4}4-8[4:1],4,
{8},7,{4}6p4[2:1],6,2,
1,{8}3,4,5,6,{4}7h[4:1],
{8}4,5,6,7,8h[8:3],{4},{8}2,
{16}2,3,4,5,{4}7-3[2:1]*-3[2:1],,,,4qq3[4:1],
4/8qq6[4:1],8,
{8}1,2,3,2,3,4,{16}5-2[8:1],6,7,8,
{4}5<8[8:1],5b,{16}4-7[8:1],3,2,1,{4}4>1[8:1],
4b,7h[4:3],3,4,
5h[4:5],6,{8}7,{4},{8}8,
{4},1s5[4:3],{1},{4}3h[4:3],
7,
{16}7,6,5,4,,2,1,8,{4}2h[2:1]/7-3[4:1],7,
,1/5h[2:1],{16}1,2,3,4,,6,7,8,
{4}5/1-5[4:1],1/6h[4:1],,7,
{16}7/3,6,5,4,3,2,1,8,{4}7h[8:3],{16}2,3,4,5,
6,7,8,1,{4}2h[4:1],{16}6,5,4,3,{4}2-6[8:1],
{2}2b,{16}6/2-6[4:1],3/7,{8}4/8,{4}2,
,{16}3/7-3[4:1],6/2,{8}5/1,{2}7,
{16}5/1-5[4:1],2/6,3/7,4/8,{4}1-4[4:1],1-6[4:1],1,
{16}1,2,3,4,5,6,7,8,{4}5/1,{16}5/1>6[4:1],2/6,{8}7/3,
{2}1,{16}4/8<3[4:1],7/3,{8}2/6,{4}8,
{8}7,6,5/2,3,4,5/8,7,6,
2/5,3,{4}4h[8:1],{16}2-5[4:1]/5q1[4:1],3/6,{8}4/7,{4}2/5,
,{16}7-4[4:1]/4p8[4:1],6/3,{8}5/2,{2}7/4,
{16}1/5-3[4:1],6/2,7/3,4/8,{4}5-7[4:1],5-2[4:1],5,
{16}5,6,7,8,1,2,3,4,{4}1/5,{16}2/6<2[4:1],3,4,5,
{2}6,{16}7/3>7[4:1],6,5,4,{4}3,
{8}4,5,4,4,3/7,3/7,2/6,6/2,
{32}1-5[8:1],2,3,4,5,6,7,8,{4}1b,{8}4,6,7-1[8:1]/2v5[4:1],1,
{2}2/7,{8}7-1[8:1]/2v5[4:1],1,{4}2/7,
{8}8,7,{4}6-2[4:1],2-5[4:1],5<2[4:1],
{8}3h[4:1],{4},{8}4,5,8/3,2-8[8:1]/7v4[4:1],8,
{2}2/7,{8}2-8[8:1]/7v4[4:1],8,{4}2/7,
{8}1,2,3b,7,5,6b,2,4,
3b,6,4,3,{16}8>5[4:1]*>5[4:1],7h,6h,5h,{4}8,
,{16}7>4[4:1]*>4[4:1],6h,5h,4h,{2}7,
{16}5-2[4:1],6,7,8,{4}2-7[4:1],7-4[4:1],5,
{16}5,6,7,8,1,2,3,4,{4}5/1,{16}6/1>6[4:1]*>6[4:1],2/7,3/8,4,
{2}1,{16}6/1>6[4:1],2/7,3/8,4,{4}1,
{8}2-5[4:1],3,2b/6,7-4[4:1],6,7b/2,3,2,
1bs5[4:1]/8bz4[4:1],2/7,{4}8/1,,{8}1b,3,
4,3,{16}5,4,{8}5,8b,6,5,6,
{16}4,5,{8}4,1b/8b,4,5,3,{16}6,5,{8}4,
{16}1<6[4:1],2,3,4,{4}1-4[4:1],1,{8}8b,6,
5,6,{16}4,5,{8}4,1b,4,2,{16}4,5,
{4}6/1>4[4:1],1<6[4:1],1-4[4:1],1,
{16}5,6,7,8,5-1[4:1],4,3,2,{4}5,{8}3b,8,
1,7,{16}2,3,{8}4,6b,1,8,2,
{16}7,6,{8}5,4b,7,3,6,{16}5/1,6/2,{8}7/3,
{16}8>3[4:1],7,6,5,{4}8-4[4:1],8,{8}2b,6,
5,6,{16}7/4,6/3,{8}5/2,3b,2,4,3,
{16}2/5,3/6,{8}4/7,4-2[8:1],5-7[8:1],4-8[8:1],5-1[8:1],4,5,
3>3[4:25],7<7[8:49],{4}3,{1},,,,,,{4},2,
4,5,2,4,
5,2,4,5,
7h[4:1],5h[4:1],4h[4:1],{16}8V25[2:1],1,{8}2,
{2},{16}8<4[2:1],7,{8}6,{2},{16}1,
2pp5[16:11],{8}3,{2},{8}8p1[4:7],
8,{4}8,
