&title=Dye the sky.
&artist=shinycolors
&first=0
&des=lp
&lv_5=13
&inote_5=(108)
{64},,,,,,,,,,,,,,,,,,,,,,,,,,,,,,
(216)
{8}8,,8,1-3[8:1],,1<6[8:1],,1,,4,35,,7,8,1,2,37,,7,2-4[8:1],,2<7[8:1],,2,5,4,3,,6h[4:1],5,4,3,
{8}26,,4,5-7[8:1],,5>2[8:1],,5,,8,17,,3,4,5,6,37,,4,6-8[8:1],,6-4[8:1],,6,1,8,7,,12,8,7,6,1/5-1[4:18],
{8},1,2-4[8:1],,2,,2,,7,7,,6,5,4,3,2,,8,7-5[8:1],,7,,7,,3,4,,2,4,3,5,5,,5-1[4:1]b,,5,,,,
{16}1,,7,,5,,,,4,5,4-8[8:1],5,4,,
{8}4b,7-5[8:1],,7,1,,2,8<4[4:1],2,8,,2-6[8:1],2,,,4>1[8:1],5,6,,7,8,,7,1-3-5[4:1],6,1,,6,6,,,
{4}1-4[8:1],17,8-5[8:1],28,1-4[8:1],17,8-5[8:1],28,
{2}1h[4:1],8h[4:1]/2h[4:1],3h[2:1]/7h[2:1],,
{8}5,5,2,,2,8,,7,1-3-5[4:1],6,1,,6-2[8:1],6,,,1-4[8:1],1,1,,6,6,,2,8-6-4[4:1],3,8,,3,3,,,
{4}8-5[8:1],83,4-1[8:1],47,5-8[8:1],52,1-4[8:1],61,
{4}8h[4:2],,1p5[8:1],1>1[2:1],1b,,,
{8}4,,45,,4p1[2:1],,4,5,,,8,,8p5[2:1],,8,1,,,2,,2p7[2:1],,2,4,,,6,,6p3[2:1],,6,4,,,
{4}1,2,2,4,4,6,6,8,8h[1:1],,2,6,4,,,4b,,
(324)
{4}3,5,7,3,1,5,1,8,1p4[4:1]/8q5[4:1],18,,,6h[4:1],4h[4:1],2h[4:1],6h[4:1],8h[4:1],4h[4:1],8h[4:1],1,1<6[4:1]/8>3[4:1],18,,,
(216)
{8}4/5h[64:48],,,,3,,2h[64:32],,,,3h[4:1],,4h[4:1],,5b,,
{8}47,5b/6b,,25,3b/4b,,18,3b/6b,,,,,
(108)
{16}3-1[16:1]/6-8[16:1],45,,,3b/6b,,,,
(216)
{8}18,,1-5[8:1],2,13,,2,,6,,4>8[4:1],,
{8}4/7h[2:1],,,6,5h[2:1],,,4,3h[4:1],,1b,8b/2b,
{8},,1<5[4:1],,5>7[8:3],,,7p5[8:3],,,5>1[4:1],,1<5[4:1],
{8},,,1bx,,8>4[4:1],,4<2[8:3],,,2pp4[8:3],,,4p8[4:1],,8b,,,,
(108)
{8}7-4[16:1]/3-8[16:1],,3b/7b,,
(216)
{8},,15,26,37,,4-8[8:1],,4<7[8:1],,4>4[1:1],,4,,,6,5,,,1,8,,37,26,{8},,5>1[4:1],,1<3[8:3],,,3p1[8:3],,,1<5[4:1],,5>1[4:1],
{8},,,5b,,4<8[4:1],,8>6[8:3],,,6pp8[8:3],,,8p4[4:1],,4-2-8[2:1],,8b,,6b,,4b,,
{8}1h[1:1]/5h[4:1],,,4h[4:1],,,5h[4:1],,,2/7h[4:1],,,
{8}1-7[8:1]/8h[2:1],,1>4[8:1],,1b,,,15,,,8h[4:1]/5,,4h[4:1],
{8},1h[8:1],5h[8:1],7h[8:1],3h[8:1],5<8[8:1],,
{8}4h[1:1]/5,,,2h[4:1],,,8h[4:1],,,4/6h[4:1],,,
{8}5-3[8:1]/4h[2:1],,5<8[8:1],,5b,,,51,,,4h[4:1]/7,,6h[4:1],
{8},8h[8:1],4h[8:1],2h[8:1],6h[8:1],4b,,
{8}8h[1:1]/5h[4:1],,,3h[4:1],,,5h[4:1],,,2/7h[4:1],,,
{8}1-7[8:1]/8h[2:1],,1>4[8:1],,1b,,,15,,,8h[4:1]/3,,1b,
{16},,1-5[8:1],8,2,7,1<6[8:1],,,,1,,
{8},4>1[4:1],,4,5,,,5,,5<8[4:1],,5,4,
(72)
{24},,1-5[24:1]/8-4[24:1],,24,,57,,
(108)
{8}1>4[16:1]/8<5[16:1],,18,,
(216)
{8},,,,18,,1,8-5[8:1],,8-3[8:1],,8,,5,5,,2,1,8,7,61,,1,7-5[8:1],,7-3[8:1],,7,4,5,6,,3,5,4,6,
{8}74,,5,4-1[8:1],,4-7[8:1],,4,,1,1,,6,5,4,3,52,,5,3-1[8:1],,3-7[8:1],,3,8,1,2,,87,1,2,3,8/4-1[4:18],
{8},8,7-5[8:1],,7-3[8:1],,7,4,5,6,,1,2,3,,6,7,8,,3,4,5,,8,1,2,,5,6,7,,2,3,4-7[4:1],,,,,,
{16}8,,6,,4,,,,1,8,1w5[8:1],8,1,,1b,,
