&title=ポジティブ☆ダンスタイム
&artist=キノシタ
&first=0.026
&des=Amatou_Kurage
&lv_5=13
&inote_5=(210){8},,,,4-8[8:1],,Cf,,
7-1[8:1],,2-4[8:1],,5,5h[8:2],,3qq4[8:3],,6,6h[8:1],,7-3[8:1],,5x,,
4v2[8:2]<6[8:2],,7,,5,5h[8:2],,4x,,3xv1[8:2]/6xv8[8:2],3x/6x,,Cf,,,,
5<8[8:1]/4,,1,,B2/B3/E3,,1x,1-7[8:1],,2x,2-6[8:1],,3h[8:2],,Cf,,
4,4,8,8-6[8:1]/4-2[8:1],,4xv1[8:1]/8xv5[8:1],,4b/8b,,2x/6x,2x-5[8:1]/6x-1[8:1],,2b/6b,,,,
3-1[8:1],,7-5[8:1],,2-8[8:1],,6-4[8:1],,2-7[8:1],,6-3[8:1],,1,1,4h[8:1],3h[8:1],6h[8:1],5h[8:1],7,8V24[8:2]b/4,,4V68[8:2]b,,8,,2,2-6[8:1],,5-8[8:1],,4,,
3-1[8:1],,7-5[8:1],,2<8[8:1],,6>4[8:1],,2,2,3,1/4<6[8:1]b,,1w5[8:1]b,,,,3v8[8:1]/7-4[8:1],37,,,1,5,2b-7[8:1]/6b-3[8:1],,2b/6b,,1x/5x,1x-5[8:1]/5xh[8:2],,,,8xqq8[8:3],,,,4xqq4[8:3],,,,6h[8:3],,,5-3[8:1],,7,7-5[8:1],,2xqq2[8:3],,,,6xqq6[8:3],,,,8h[8:3],,,7<2[8:2],,,Cf,,
8x/1x-5[8:1],,7,7-4[8:1],,3>8[8:1],3,5h[8:2],,3v6[8:1],3,4h[8:2],,,85,,
6xV47[8:2]/2x,,3,3x,,E2/E8,,B6/B5/B4/B3,,1,8,27,2xh[8:2]/7xh[8:2],,,,
1x/2x-4[8:1]*-5[8:1],,,,8x/7x-5[8:1]*-4[8:1],,,,6xq7[8:4]/3xp2[8:4],,,,,,,,
1x/2x>5[8:1]*q6[8:1],,,,8x/7x<4[8:1]*p3[8:1],,,,8x/1x>6[8:3]*q6[8:3],,,,,,Cf,,
1x/8x-4[8:1],,2,2-5[8:1],,6<1[8:1],6,4h[8:2],,6v3[8:1],6,5h[8:2],,,14,,
3xh[8:2]/7x,,4,2x/5xh[8:2],,1s5[8:3],6,7x,,8x,8x,8x,3b/7b,,C,,
1xh[8:1]/B5,,2xh[8:1]/B7/E8,,3xh[8:1]/B1/B2/E1,,4,4-6[8:1],,7>3[8:2]pp4[8:2],7,8x,,,1x,,
{32}1xh[8:1],B5,,,,,,,2xh[8:1],B7,E8,,,,,,3xh[8:1],E1,B1,B2,,,,,{8}4,4-6[8:1]-2[8:1],,7,7,7,{12}3x,4,2,6x,5,7,
{8}Cf,,,,,,,B3/B2/E3/B6/B7/E7,,81,81,2b-5[8:1]/7b-4[8:1],,,,,
4xh[8:4]/5x,,5,,5,4,36,3b/6b,,2b/6b,3b/7b,2b/6b,3bh[8:2]/7b-5[8:1],,,,
3-1[8:1],,4,,5,5pp4[8:3],,2,,3,3x-7[8:1],,6x-2[8:1],,5x,,4-1[8:1],,8,,7,7p6[8:3],,6x,,5,5x>8[8:2],,8x,,C,,
5x-1[8:1]/6x-8[8:1],,,,3x/4x,3x-1[8:1]/4x-8[8:1],,,,6x/7x,6xh[8:1]/7xh[8:1],,5xh[8:1]/6xh[8:1],,5xh[8:1]/4xh[8:1],,{24}1x-4[8:1]*-6[8:1],B7,C,B3,,,1b,,,,,,1x-4[8:1]*-6[8:1],B7,C,B3,,,1b,,,,,,{8}7b-4[8:1],7,3b-8[8:1]b,3,6b-1[8:1],6,2b-5[8:1]b,2,Cf,,,,,,,,Ch[8:6],,,,,,,,1x/5xh[8:6],,1xh[8:1],,1xh[8:2],,,{32}E1,E2,E3,E4,E5,E6,E7,E8,E1,E2,E3,E4,E5,E6,E7,E8,E1,E2,E3,E4,{8}E5,,2b/7b,,
3-5[8:1]v2[8:1]/8,,1,1h[8:2],,3,3<6[8:1],7,7V15[8:2]b,,2,2h[8:2],,4h[8:1],5h[8:1],7h[8:1],3-5[8:1],3,7-3[8:1],7,1>7[8:3]b,1,,Cf,,8xqq1[8:3],,2,,4,4-6[8:1],,
2-6[8:1]/4,,2b/8b-3[8:1]*-5[8:1],,8x,,2b/6b,,B3/B4/B7/B8,,1bw5[8:1]/C,,1x,,3x/7x,3x-5[8:1]b/7x,,8-2[8:1],8,3-5[8:1],,8,8,7xb/6xb,,8b/4b,8b/4b,,5h[8:1]/6h[8:1],,3h[8:1]/4h[8:1],,
6-4[8:1]v7[8:1]b/1,,8,8h[8:2],,6,6>3[8:1],2,2V84[8:2],,7,7h[8:2],,5h[8:1],4h[8:1],2h[8:1],6-4[8:1],6,2-6[8:1],2,8z4[8:2],8,C,,2V46[8:2],,7,7h[8:2],,1x,8x,2x/7x,3xb/6b<3[8:2]b,,,,5b-8[8:1],,,4,6xb/3b>6[8:2]b,,,,4b-1[8:1],,,5,3xbh[8:5]/6xbh[8:5],,,,,,,8x/1x,,3,4-8[8:1]/2-5[8:1],24,,,,1b/7b,,3,6b-1[8:1]/2bv5[8:1]b,6b/2b,,,,,
4-1[8:10]*-1[8:10],,A5,,A5,,A5,,A5,,A5,,A5,,6x<4[8:3],,
{8}2b,,5,5h[8:2],,1-5[8:1]b,4-8[8:1]b,1,4,,7,3/7h[8:2],,B1/B2,B6/B7,B3/B4,6>3[8:1],6,2q6[8:1]b,2,7pp4[8:4],7,,B1/B8/E1f,,,,3xV15[8:2]/5x,,7,7,7,6-4[8:1]/4xh[8:1],,8bh[8:1],,5xh[8:1]/7-5[8:1]b,,1bh[8:1],,7-3[8:1]/3xh[8:1],,1bw5[8:1]b,,1x,,3x/7,3x<5[8:1]b/7x,,8>2[8:1],8,3<5[8:1],,8,8,7bx/6bx,,8b/4b,8b/4b,,25,25,
3x>5b[8:3]/4,,
{8}7b,,4,4h[8:2],,8-4[8:1],5-1[8:1],8,5,,2,6/2h[8:2],,B8/B7,B3/B2,B6/B5,3<6[8:1],3,B5/B4/C,,8-6[8:1]/1-3[8:1],,8-4[8:1]/1-5[8:1],,{16}8b/1b,Cf,,,{8},3x/6x,,18,18,,
3xb/6b<3[8:2]b,,,,5bv8[8:1],,,4,6xb/3b>6[8:2]b,,,,4bv1[8:1],,,5,3xbh[8:5]/6xbh[8:5],,,,,,,8x/1x,,2b/7b-1[8:1]-5[8:1]-3[8:1],2b/7b,2bh[8:3]/7b,,,,,
1<6[8:1],,5-8[8:1],,4,4qq4[8:3],,8x,,7,7h[8:1],,6h[8:1]/5h[8:1],,5h[8:2]/4,,
4v2[8:2]<6[8:2],,7,,5,5h[8:2],,3x,,2xpp2[8:3]/6xpp6[8:3],2x/6x,,,,,,
5<8[8:1]b/4,,1,,B2/B3/E3,,1x,1-7[8:1]b,,2x,2-6[8:1]b,,3h[8:2],,Cf,,
7,7,3,3-5[8:1]/7-1[8:1],,3/7-3[8:1]b,,Cf/7b,,4xb/5xb,{64}4xbV68[8:1],5xbV31[8:1]b,,,,,,,4xb/5xb,,,,,,,,
