&title=Antithesis
&artist=5argon
&first=-0.23
&des_5=砂糖Cafe
&lv_5=14
&des=砂糖Cafe
&inote_5=(163){4},,,,3,
4,5,6,
7,6,5,4,
6,5,4,3,
2,3,4,5,
7,6,5,4,
6,5,4,3,
2,3,4,5,
{1}6h[2:1],
{4}8/1,{8}2,3,{4}4,4,
{8}5,4,{4}5,{8}4/5,,,6,
5,4,{4}4,{8}3,4,,,4/6,
,,5,{4}5,4,
1/8,{8}7,6,{4}5,5,
{8}4,5,{4}4,{8}5/4,,,3,
4,5,{4}5,{8}6,5,,,5/3,
,,4,{4}4/5,6h[8:1],
{8}5/3,{16}3,4,{8}3,{16}6,5,6,5,,3,{8}4,{16}4,3,
,,6,5,{8}6,{16}3,4,{8}3,{16}6,5,{8}7,{16}3,4,
{8}1b,{16}7,8,{8}7,{16}2,1,{8}2,1/2,1/8,{16}7,1,
{8}7,{16}3,5,{8}3,{16}6,4,{8}6,{16}2,8,{8}2,{16}6,5,
{8}6,{16}4,5,{8}4,{16}6,4,5,3,{8}4,4,{16}3,4,
,,4,5,{8}4,{16}7,5,{8}7,{16}3,4,{8}2,{16}5,4,
{8}5b,{16}2,4,{8}2,{16}6,5,{8}7,{16}3,4,{8}3,{16}4,5,
{8}4,{16}5,6,{8}5,{16}7,6,{2}7h[2:1],
{4}8-4[8:1],1b/8b,{8}3,2/4,6h[8:1],{16}1,2,
{8}5/3,6/4,3h[8:1],{16}8,7,{8}6/4,{16}3,5,4,6,5,7,
{4}2-6[8:1],2b/8b,{8}4/6,7,3/5,{16}2,2,
{8}4,3/5,4,{16}7,7,,,4,6,3,5,2,4,
{4}1-5[8:1],8b/1b,{8}6,7/5,3h[8:1],{16}8,7,
{8}6/4,3/5,6h[16:3],{16}1,2,{8}3/5,{16}6,4,5,3,4,2,
{4}7-3[8:1],1/7,{16}2h[16:3],,,4h[16:3],,,{8}5,
6h[8:1],5h[8:1],{4}4h[4:1],{2}3,
{4}8-4[8:1],8/4,{8}2/5,{16}4,3,,,{8}2/1,
4/7,{16}5,6,,,{8}7/8,5/2,{16}4,3,,,{8}8/1,
{4}2-6[8:1],2/6,{8}5/7,{16}6,5,,,{8}4/5,
4/2,{16}3,4,,,{8}5/4,5/7,{16}6,5,,,{8}4/5,
{4}2-5[8:1]/7-4[8:1],2/7,{8}7/4,{16}6,5,,,{8}1/8,
5/2,{16}3,4,,,{8}8/1,4/7,{16}6,5,,,{8}2/8,
{4}7-3[8:1],7/3,{8}4/2,{16}4,3,,,{8}5/4,
5/7,{16}5,6,,,{8}4/5,4/2,{16}3,4,3,5,4,6,
{8}5,6/4,{16}2/8,,,1,7,1,{8}7h[8:1],1h[8:1],8b,
2/6,5/3,{16}5/4,,,3,5,3,{8}5h[8:1],3h[8:1],4b,
5/4,5/3,{16}1/7,,,8,2,8,{8}2h[8:1],8h[8:1],1b,
7/2,6/3,{16}4/5,,,4,4,5,3,5,{8}3,4b,
{16}3,4,{8}2,5h[8:1],{16}4,5h[8:1],,4,{8}5h[8:1],4,{16}5b,4,
6,5,{8}7,4h[8:1],{16}5,4h[8:1],,5,{8}4h[8:1],5,{16}4b,5,
3,4,{8}1,4h[8:1],{16}3,4h[8:1],,3,{8}4h[8:1],{16}2,5,{8}3b,
{16}6,5,{8}8,5h[8:1],{16}6,5h[8:1],,6,{8}5h[8:1],{16}7,4,{8}6b,
{16}3,4,3,4,{8}3,{16}5,4,,6,5,6,{8}5h[8:1],7h[8:1],
{16}4,6,{8}4,{16}5,3,,4,2,4,2,4,2,3,{8}1b,
{16}6,5,6,5,{8}6,{16}4,5,,3,4,3,{8}4h[8:1],2h[8:1],
{16}5,3,{8}5,{16}4,6,,5,7,5,7,5,7,6,{8}8b,
{16}2,1,{8}2,2,2q7[8:1],7q4[8:1],4-2[8:1],,,8,
8,{16}1,7,{8}1,{16}8,1,,8,2,8,{8}2h[16:1],
{16}7,8,{8}7,7,7p2[8:1],2p5[8:1],5-7[8:1],,,1,
1,1h[16:3],{16}8,8h[16:3],,1,{8}1h[8:1],8bh[8:1],1b,
{4}7/2,3,4,5,
4/6,5,4,3,
4/3,6,5,4,
5/3,4,5,6,
5/6,2,3,4,
4/6,7,6,{8}5,4,
{4}3/5,6,5,4,
3/4,3,4,5,
{8}5/6,4,{4}3,2,2h[4:1],
{8}8,7,6,7,6,5,6,5,
4h[4:1],5,{4}5,6,7h[4:1],
{8}1,2,3,2,3,4,3,4,
5h[4:1],4,{4}4,3,2h[4:1],
{8}7,6,5,6,5,4,5,4,
3h[4:1],4,{4}4,5,6h[4:1],
{8}2,3,4,3,4,5,4,5,
{1}6h[2:1]/4h[2:1],
,,,{8}4,
4,4,4,{16}4,5,,5,4,6,3,5,
{8}4,4,4,4,{16}4,5,,3,5,2,6,1,
7,8,{32}8,1,{16}2,8,8,{32}8,7,{16}6,8,8,{32}8,1,{16}2,8,8,{32}8,7,{16}6,
{1}8bh[8:7],
{8}1b/7,{16}2,6,{8}5,{16}7,3,{8}4,2/6,{16}1/8,2,2,7,
{8}3/7,{16}2,6,{8}5,{16}7,3,4,2,5,2,6,2,7,2,
{8}8b/2,{16}6,2,{8}1,{16}3,7,{8}8,{16}6,2,{8}4,{16}2,6,
{8}4,{16}6,2,{8}1,{16}3,7,8,7,1,7,2,7,3,7,
{8}7/4,{16}3,5,{8}1,{16}5,3,{8}7,{16}2h[32:1],4h[32:1],8h[32:1],6h[32:1],2h[32:1],8h[32:1],
{8}4h[32:1],{16}7,3,{8}4,{16}2,6,{8}5,{16}8,1,7,2,6,3,
{8}5/4,{16}6,4,{8}8,{16}4,6,3h[32:1],5h[32:1],1h[32:1],7h[32:1],3h[32:1],1h[32:1],{8}5h[32:1],
{16}7,3,4,3,8,4,5,4,6,5,6,2,5,4,5,1,
{8}6b,{16}3,4,{8}8,{16}6,5,{8}1,{16}3,4,{8}7,{16}6,5,
{8}2,{16}3,5,{8}3,{16}6,4,6,4,7,3,7,3,8,2,
{8}8b,{16}2,5,{8}7,{16}7,4,{8}2,{16}2,5,{8}7,{16}8,4,
{8}3,{16}1,5,{8}6,{16}8,4,3,1,7,1,7,2,6,2,
{8}6b,3/4,2,5/4,1,5/6,{16}7,8,{8}7,
2b/1b,3,8/1,4,7/8,5,{16}3,4,{8}3,
7b/5b,4/2,8/1,7/6,5/3,2/1,3/4,5/7,
{24}4b,8,4,8,4,8,3b,7,3,7,3,7,{32}2b,3,4,5,6,7,8,1,6b/2,5,4,3,2,1,8,7,
{1}6b<6[4:15]/2b>2[4:15],
E
