&title=ループザルーム
&artist=ルシノ/初音ミク
&first=0
&des=dentsu=♂
&lv_5=13.7
&des_5=dentsu=♂
&inote_5=
(162){4},{1},{4},,,{16},8/1-4[0.3241##0.1389],
{32},,,,,1,,,,,,,,4/5-8[32:3],,,,,,,,5,,,,,,,,8/2-6[32:3],
,,,,,,,2,,,,,,,,6/8-4[32:3],,,,,,,,8,,,,,,,,2/4,
,,,,,,,8/7,,,,8/7,,,,1/2,,,,,,,,5/4,,,,,,,,6/4,
,,,,,,,5/3,,,,,,,,,{16}5,,4,,5,,4,
{32},8b,,,,,,,,3,,,,4/2,,,,6,,,,,,,,7/5,,,,,,,,7/1,
,,,,,,,7/1>5[4:1],,,,,,,,1/5<1[4:1],,,,,,,,1,,,,,,,,5,
,,,,,,,6/2,,,,7/3,,,,8/4,,,,,,,,8-4[8:1]/1-5[8:1],,,,,,,,8/1,
,,,,,,,5<8[4:1]/4>1[4:1],,,,,,,,5/4,,,,,,,,,,,,,,,,8b/1b,
,,,,,,,3,,,,3/4,,,,2,,,,2/4,,,,1p6[4:1],,,,,,,,1,
,,,,,,,7h[1:1],,,,,,,,4,,,,,,,,3,,,,,,,,2,
,,,,,,,,,,,1,,,,1,,,,7,,,,7,,,,4,,,,4>6[8:3],
,,,,,,,,,,,,,,,6,,,,,,,,5,,4,,3,,,,1-5[16:3],
{4},,{16},,,{32},7h[4:1]/3h[4:1],,,,,,,,,,,,,,,,5b/1b,
,,,,,,,7v5[32:5]/3v1[32:5],,,,,,,,7/3,,,,,,,,6/2,
,,,,,,,2V46[4:1],,,,,,,,6V82[4:1],,,,,,,,2>6[4:1],,,,,,,,6<2[4:1],
,,,,,,,2,,,,,,,,6h[2:1],,,,,,,,3,,4,,5,,,,,{16}E6,
,,,E7,,,,E8,,,,E1,,,,E2,
,,,E3,,,,E4,,,,5/4,,,,E6,
,,,E7,,,,E8,,,,E1,,,,E2,
,,,E3,,,,E4,,,,5/4,,,,E6,
,,,E7,,,,E8,,,,8/1,,,,E2,
,,,E3,,,,E4,,,,5/4,,,,E6,
,,,E7,,,,E8,,,,8/1,,,,5h[4:3]/4h[2:1],
,,,,,,,,,,,4-2[8:1],,,,5-1[8:1],
,6,,4-2[8:1],,3,,5-1[8:1],,6,,4-2[8:1],,3,
,5-1[8:1],,6,,4-2[8:1],,3,,5-1[8:1],,6,,4,,4,
,3/5-7[8:1],,,,5/4,,,,3/5-7[8:1],,,,5/E5,,,,3/5-7[8:1],
,,,5/E5,,,,3/5-7[8:1],,2,,5/E5,,,,8/7,
,6,,8/7,,6,,8/7,,5,,8/7,,5,
,8/7,,5,,7/1,,4,,8/2,,4,,2/1,,3,
,4,,5/3,,5h[8:1]/3h[8:1],,,,7/1,,1h[8:1]/7h[8:1],,,,2,
,3,,4,,5,,6,,7<4[8:1]/3>8[8:1],,,,3/7,,,,5-8[8:1]/1-4[8:1],
,6/2,,5/1,,,,8/3,,2,,5/3,,2,
,5/3,,1,,5/3,,1,,5/3,,2,,5/3,,2,
,5-8[8:1]/6-8[8:1],,4,,,,,,4-1[8:1]/3-1[8:1],,5,,,,,,5-8[8:1]/6-8[8:1],
,4,,,,,,4-1[8:1]/3-1[8:1],,5,,,,,,8w4[8:1],
7,6,,8,,,,B6/B5/E5,,,,E1/B8/B7/E7,,,,E3/B3/B4/E5,
,,,E1/B1/B2,,,,B5/E5,,,,E4,,,,7-2[8:1]/6-3[8:1],
,6/7,,,,,,2-7[8:1]/3-6[8:1],,2/3,,,,,,7-2[8:1]/6-3[8:1],
,6/7,,,,,,2-7[8:1]/3-6[8:1],,2/3,,,,,,8bV63[2:13],
{1},{4},,{16},,,1h[4:1],
,,,,,,,2h[4:1],
,,,,,,,1h[4:1],,,,,,,,2h[4:1],
,,,,,,,8h[4:1],,,,,,,,7h[4:1],
,,,,,,,6h[4:1],,,,,,,,1h[4:1],
,,,,,,,8h[4:1],,,,,,,,2h[4:1],
,,,,,,,5h[4:1],,,,,,,,7h[4:1],
,,,3,,3,,2,,2,
,5/6-1[8:1],,5/6h[4:1],,,,,,4/3-8[8:1],,4/3h[4:1],,,,,,8/7-4[8:1],
,8/7h[4:1],,,,,,1/2-5[8:1],,1/2h[4:1],,,,,,1/8-4[8:1],
,1/8h[4:1],,,,,,8/1-5[8:1],,8/1h[4:1],,,,,,7,
,7,,8/2>5[8:1],,,,2/8,,,,1,,1,
,2/8<5[8:1],,,,8/2,,,,E1,,,,E7,,,,E5,
,,,E3,,E2,,E1,,E8,,E7,B6,E6,
B5,E5,B4,E4,B3,{32}E3,A2,D2,A1,D1,A8,D8,A7,D7,A6,D6,A5,D5,A4,D4,A3,{16}D3,,,,Cfh[2:1],
,,,,,,,,,,,,,,,5/1>5[4:1],
,,,1/5<1[4:1],,,,1V35[4:1],,,,5V71[4:1],,,,1q5[4:1],
,,,5q1[4:1],,,,1V35[4:1],,,,5V71[4:1],,,,1>5[4:1],
,,,5<1[4:1],,,,1,,,,5h[4:1],,,,,,,,8-5[8:1]/1-4[8:1],
,7/2,,8<5[8:1]/1>4[8:1],,,,,,,,1-5[4:1],
,,,5<8[4:1],,,,8-4[4:1],,,,4>1[4:1],,,,1w5[4:1],
,,,,,,,,,,,3,,,,2/B6,
,,,1/B5,,,,8/B4,,,,7/B3,,,,8/B4,
,,,1h[4:3]/C,,,,,,,,,,,,6,
,6/1,,7,,2,,3,,7,,6,,2,
,3,,7,,6,,7,,3,,2,,6,,7,
,6,,3,,4,,3,,6,,5,,3,,4,
,5,,6,,3,,4,,3,,6,,5,,6,
,4b,,,,1,,2,,8,,7,,1,,2,
,1,,8,,2,,1,,7,,8,,2,,8,
,7b,,3,,3,,8,,8,,5,,5,,,,Ch[2:1],
,,,,,,,,,,,,,,,8,
7,6,5,4,3,2,1,8,7,6,5,4,3,2,
1,8,7,6,5,4,3,2,1,8,7,6,5,4,3,2,
1b/5,8,7,6,5/1,4,3,2,1/5,8,7,6,5/1,4,3,2,
1/5,8,7,6,5/1,4,3,2,1/5,8,7,6,5/1,4,,,,4/3,
,4/3,,2/1,,2/1,,6/5,,6/5,,8/7,,8/7,
,4/3,,4/3,,6/5,,6/5,,2/1,,2/1,,8/7,,8/7,
,5/4,,5/4,,2/1,,2/1,,6/5b,,6/5b,,7b/1,,7b/1,
,4/3b,,4/3b,,8b/2,,8b/2,,7/6b,,7/6b,,5/4b,,5/4b,
,8q5[8:1]/5p8[8:1],,8<5[8:1]/5<8[8:1],,,,,,,,8/5,,8/4,,1/4,
,1p4[8:1]/4q1[8:1],,1>4[8:1]/4>1[8:1],,,,,,,,,,6,,5,
,1b,,,,3,,4,,8b,,,,7,,6,
,2,,3,,7,,6,,2,,3,,7,,6,
,1>8[4:11],,,,C,,,,B6,,,,E7,,,,E8,
,,,E1,,,,E2,,,,E3,,,,E4,
,,,E5,,,,E6,,,,E7,,,,E8,
,,,4b,,,,1b,
E
