&title=HAELEQUIN
&artist=orangentle
&first=0.01
&des=Tane
&freemsg=
&wholebpm=
&des_1=Tane
&des_2=Tane
&des_3=Tane
&des_4=Tane
&des_5=Tane
&lv_1=4
&lv_2=5
&lv_3=8
&lv_4=9
&lv_5=14
&inote_1=(167){1},{8},,,,
,,,,
{1}1>8[2:3],,
{1}7<2[1:1],
{4},,81,,
{2}2,,,,
{1}27,
{4}1b/8b,,,,
,,,,
{8}34,,,,
,,45,,
{8}56,,,,
,,45,,
{4}1b,,,,
{1}4q5[2:1],
{4}6,,,,
{1}8p1[2:1],
{1}4h[2:1],5h[2:1],
{4}1,,,,
{4}34,,,,
{4}1,,,,
{4}1,,,,
{4}8b,,1b,,
{1}1bz5[2:1]/8bs4[2:1],
{4}8,,,,
{4}8,,,,
{2}1,,
{4}1b/8b,,,,
{4}1,,,,
{4}8,,,,
{4}1,,,,
{4}8b,,,,
{4}4,,,,
{4}3,,,,
{4}2,,,,
{4}1,,,,
{8}1^4[2:3],,,,
,,,,{8},,,,
,,,,
{8}7-3[2:3],,,,
,,,,{8},,,,
,,,,
{8}2,,,,
,,,,
{8}8,,,,
,,,,
{2}18,,
{4}18,,{8},,,,
{4}1,,,,
{4}2,,,,
{4}4,,,,
{4}3,,,,
{8}1,,,,
,5,,,
{8},3,,,
,7,,,
{8},2,,,
,6,,,
{8},34,,,
,18,,,
{1}1pp4[2:3]/8qq5[2:3],
{8},,,,
,,,,
{1}4q6[4:3],
{4}1,,,,
{1}5p3[4:3],
{4}5,,,,
{1}1pp6[4:3],
{4}4,,,,
{4}18,,,,
{4}18,,{8},,,,
{4}1,,,,
{4}1,,{8},,,,
{4}2,,,,
{4}2,,{8},,,,
{2}4h[4:1]/5h[4:1],{4},,
{2}5h[4:1]/4h[4:1],{4},,
{4}1,,,,
{4}5,,,,
{1}1h[1:1]/8h[1:1],
{8},,8b,,7b,,
6b,,
{4}1,,,,
{4}2,,,,
{4}7,,,,
{4}3,,,,
{4}6,,,,
{4}3,,,,
{2}45,,
{8}45,,,,
,,,,
{4}3,,,,
{4}1,,,,
{2}4^7[4:1],{8},,,,
{2}5^2[4:1],{8},,,,
{1}1bpp4[8:5],7bqq4[8:5],
{8}3,,,,
,,,,
{8}2,,,,
,,,,
{8}6,,,,
,,,,
{8}7,,,,
,,,,
{8}45,,,,
,,,,
{8}18,,,,
,,,1>8[4:7]/8<1[4:7],
{1},,
{8},,1h[2:5]/8h[2:5],,
,,,,{8},,,
{1},,,,,,,,
&inote_2=(167){1},{8},,,,
,,,,
{1}1>8[2:3],,
{1}7<2[1:1],
{4},,81,,
{2}2,,2,,
{1}2/7,
{4}1b/8b,,7,,
6,,5,,
{8}34,,,43,
,,45,,
{8}56,,,56,
,,45,,
{4}1b,,2,,
{1}4q5[2:1],
{4}6,,6,,
{1}8p1[2:1],
{1}2h[2:1]/4h[2:1],5h[2:1]/7h[2:1],
{4}1,,1,,
{4}34,34,,,
{4}1,,1,,
{4}1,,5,,
{4}8b,,1b,,
{1}1bz5[2:1]/8bs4[2:1],
{4}8,,8,,
{4}8,,4,,
{2}1,8,
{4}1b/8b,2b/7b,,,
{4}1,,3,,
{4}8,,6,,
{4}1,,3,,
{4}8b,,8b,,
{4}4,,5,,
{4}3,,6,,
{4}2,,7,,
{4}1,,8,,
{8}1^4[2:3],,,,
,,,,{8},,,,
,,,,
{8}7-3[2:3],,,,
,,,,{8},,,,
,,,,
{8}2,,,,
,,,,
{8}8,,,,
,,,,
{2}18,18,
{4}18,,{8}18,,,,
{4}1,,8,,
{4}2,,3,,
{4}4,,5,,
{4}3,,2,,
{8}1,,,,
,5,,,
{8},3,,,
,7,,,
{8},2,,,
,6,,,
{8},34,,,
,18,,,
{1}1pp4[2:3]/8qq5[2:3],
{8},,,,
,,,,
{1}4q6[4:3],
{4}1,,3,,
{1}5p3[4:3],
{4}5,,7,,
{1}1pp6[4:3],
{4}4,,2,,
{4}18,,18,,
{4}18,,{8}18,,,,
{4}1,,5,,
{4}1,,{8}1,,,,
{4}2,,6,,
{4}2,,{8}1,,,,
{2}4h[4:1]/5h[4:1],{4}2,,
{2}5h[4:1]/4h[4:1],{4}7,,
{4}1,,3,,
{4}5,,7,,
{1}1h[1:1]/8h[1:1],
{8},,8b,,7b,,
6b,,
{4}1,,4,,
{4}2,,5,,
{4}7,,1,,
{4}3,,1,,
{4}6,,4,,
{4}3,,5,,
{2}45,45,
{8}45,,,,
45,,,,
{4}3,,4,,
{4}1,,7,,
{2}4^7[4:1],{8}2,,,,
{2}5^2[4:1],{8}7,,,,
{1}1bpp4[8:5],7bqq4[8:5],
{8}3,,,2,
,,,,
{8}2,,,1,
,,,,
{8}6,,,7,
,,,,
{8}7,,,8,
,,,,
{8}45,,,36,
,,,,
{8}18,,,27,
,,,1>8[4:7]/8<1[4:7],
{1},,
{8},,1h[2:5]/8h[2:5],,
,,,,{8},,,
{1},,,,,,,,
&inote_3=(167){1},{8},,,,
,,,,
{1}1>8[2:3],,
{1}7<2[1:1],
{4},,81,18,
{2}2,7,2,7,
{1}2>7[2:1]/7<2[2:1],
{4}1b/8b,2,7,3,
6,4,5,4,
{8}34,,,43,
,,45,,
{8}56,,,56,
,,45,,
{4}1b,,2,,
{1}4q5[2:1],
{4}6,,6,,
{1}8p1[2:1],
{1}2h[2:1]/4h[2:1],5h[2:1]/7h[2:1],
{4}1,,1,,
{4}34,34,,,
{4}1,2,1,7,
{4}1,3,5,7,
{4}8b,,1b,,
{1}1bz5[2:1]/8bs4[2:1],
{4}8,7,8,2,
{4}8,6,4,2,
{2}1,8,
{4}1b/8b,2b/7b,,,
{4}1,2,3,4,
{4}8,7,6,5,
{4}1,2,3,4,
{4}8b,8b,8b,,
{4}4,4,5,5,
{4}3,3,6,6,
{4}2,2,7,7,
{4}1,,8,,
{8}1^4[2:3],,,,
,,,,{8},,,,
,,,,
{8}7-3[2:3],,,,
,,,,{8},,,,
,,,,
{8}2,,,,
,,,,
{8}8,,,,
,,,,
{2}18,18,
{4}18,,{8}18,18,18,,
{4}1,7,8,2,
{4}2,8,3,5,
{4}4,6,5,3,
{4}3,7,2,7,
{8}1,,1,,
,5,,5,
{8},3,,3,
,7,,7,
{8},2,,2,
,6,,6,
{8},34,,56,
,18,,,
{1}1pp4[2:3]/8qq5[2:3],
{8},,,,
,,,,
{1}4q6[4:3],
{4}1,2,3,4,
{1}5p3[4:3],
{4}5,6,7,8,
{1}1pp6[4:3],
{4}4,3,2,1,
{4}18,,18,,
{4}18,,{8}18,18,18,,
{4}1,7,5,2,
{4}1,5,{8}1,1,1,,
{4}2,5,6,1,
{4}2,6,{8}1,1,1,,
{2}4h[4:1]/5h[4:1],{4}2,2,
{2}5h[4:1]/4h[4:1],{4}7,7,
{4}1,2,3,4,
{4}5,6,7,8,
{1}1h[1:1]/8h[1:1],
{8},,8b,,7b,,
6b,,
{4}1,3,4,6,
{4}2,4,5,6,
{4}7,8,1,2,
{4}3,6,1,3,
{4}6,5,4,4,
{4}3,4,5,5,
{2}45,45,
{8}45,,,,
45,45,45,,
{4}3,1,4,8,
{4}1,4,7,2,
{2}4^7[4:1],{8}2,,,,
{2}5^2[4:1],{8}7,,,,
{1}1bpp4[8:5],7bqq4[8:5],
{8}3,,,24,
,,,,
{8}2,,,13,
,,,,
{8}6,,,75,
,,,,
{8}7,,,86,
,,,,
{8}45,,,36,
,,,,
{8}18,,,27,
,,,1>8[4:7]/8<1[4:7],
{1},,
{8},,1h[2:5]/8h[2:5],,
,,,,{8},,,
{1},,,,,,,,
&inote_4=(167){1},{8},,,,
,,,,
{1}1>8[2:3],,
{1}7<2[1:1],
{4},,81,18,
{2}2-4[8:1],7-5[8:1],2-5[8:1],7-4[8:1],
{1}2>7[2:1]/7<2[2:1],
{4}1b/8b,2h[4:1],7h[4:1],3h[4:1],
6h[4:1],4h[4:1],5h[4:1],4,
{8}34,,,43,
,,18,,
{8}56,,,56,
,,45,,
{4}1b,,2,3,
{1}4q5[2:1],
{4}6,,6,7,
{1}8p1[2:1],
{1}2h[2:1]/4h[2:1],5h[2:1]/7h[2:1],
{4}1,,1,2,
{4}34,34,,,
{4}1,25,1,37,
{4}1,3,5,7,
{4}8b,,1b,,
{1}1bz5[2:1]/8bs4[2:1],
{4}8,74,8,62,
{4}8,6,4,2,
{2}1b^4[8:1],8b^5[8:1],
{4}1b/8b,2b/7b,36,45,
{4}45,1,45,7,
{4}45,2,45,6,
{4}45,3,45,7,
{4}1b,2b,3b,,
{4}24,1,57,8,
{4}25,1,47,8,
{4}34,1,56,8,
{4}1h[4:2],,8,,
{8}1^4[2:3],,,,
,,,,{8},,,,
,,,,
{8}7-3[2:3],,,,
,,,,{8},,,,
,,,,
{8}2^5[2:1],,,,
,,,,
{8}6^1[2:1],,,,
,,,,
{2}18,18,
{4}18,18,{8}18,18,18,,
{4}1-3[8:1],7,8-6[8:1],2,
{4}2-4[8:1],8-6[8:1],3-1[8:1],5-7[8:1],
{4}4-2[8:1],6,5-7[8:1],3,
{4}3-1[8:1],7-5[8:1],2-4[8:1],7,
{8}1,1,1,1h[8:2],
,5,5,5h[8:2],
{8},3,3,3h[4:1],
,7,7,7h[8:2],
{8},2,2,2h[4:1],
,6,6,6,
{8},34,,57,
,12,12,,
{1}1qq6[2:3]/2pp5[2:3],
{8},,,,
,,,,
{1}3/4q6[4:3],
{4}1,2,3,4,
{1}5p3[4:3]/6,
{4}5,6,7,8,
{1}1pp6[4:3]/2,
{4}4,3,2,1,
{4}18,,18,,
{4}18,18,{8}18,18,18,,
{4}1-4[8:1],7,5-8[8:1],2,
{4}1-4[8:1],5-8[8:1],{8}1,1,1,,
{4}2-7[8:1],5,6-3[8:1],1,
{4}2-7[8:1],6-3[8:1],{8}1,1,1,,
{2}4h[4:1]/5h[4:1],
{16}2,,,2,
,,2,,
{2}5h[4:1]/4h[4:1],
{16}7,,,7,
,,7,,
{4}1,2,3,4,
{4}5,6,7,8,
{1}1h[1:1]/8h[1:1],
{8},,8b,,7b,,
6b,,
{4}15,3,47,6,
{4}25,4,5,6,
{4}74,8,15,2,
{4}37,6,15,37,
{4}6,5,{8}4,4,4,,
{4}3,4,{8}5,5,5,,
{2}4/5-7[8:1],4-2[8:1]/5,
{8}45,,45,,
45,45,45,45,
{4}35,1,46,8,
{4}12,47,78,25,
{2}3/4^7[8:1],{8}2,2,2,,
{2}6/5^2[8:1],{8}7,7,7,,
{1}1bpp4[8:5]/7,7bqq4[8:5]/4,
{8}3,,,24,
,,,,
{8}2,,,13,
,,,,
{8}6,,,75,
,,,,
{8}7,,,86,
,,,,
{8}45,,,36,
,,,,
{8}18,,,27,
,,18,1>8[4:7]/8<1[4:7],
{1},,
{8},,1h[2:5]/8h[2:5],,
,,,,{8},,,
{1},,,,,,,,
&inote_5=(167){1},{8},,,,
,,,,
{8}1-4[8:1],,,5-8[8:1],
,,2-5[8:1],,
{8},1-6[8:1],,,
4,,35,,
{8}5-8[8:1],,,1-4[8:1],
,,6-1[8:1],,
{8},5-2[8:1],,,
8,,17,,
{8}68,6,65,5,
54,4,43,3,
{8}13,3,34,4,
45,5,56,6,
{8}68,5,34,4,
56,4,13,2,
{8}8b,,{16}1,2,3,4,
57,6,5,4,
36,7,8,1,
{16}24,5,6,7,
85,4,3,2,
13,2,1,8,
74,3,2,1,
{8}5-7[8:1],,,4-8[8:1],
,,6,7,
{8}8-4[8:1],,,1-3[8:1],
,,{16}6,5,7,4,
{16}8b,,,,
,,6,5,
8-4[8:1],,8,,
3qq6[4:1],,3,,
{16}6<4[4:1],,,5,
,,5h[4:1],,
,,,,
,,6,5,
{16}6,,,,
,,3,4,
2^5[8:1],,2,,
8<4[4:1],,8,,
{8}4>5[8:3],,,,
,4,3,2,
{16}1-5[16:3],,,5V71[4:1],
,,8h[4:1],,
,,,,
7,,6,,
{8}5-1[8:1],1V35[4:1],2,4h[4:1],
{16},,,,
,,3,4,
{16}2,,,,
,,3,4,
2-5[8:1],,,6,
,,8,,
{8}8b-4[8:1],,8bw4[8:1],,
{16},,,,
3,4,2,5,
{16}1b,,,,
1,,7,6,
51,,6,,
71,,8,,
{16}71,,,6,
1,,5,,
1,,,,
1,,2,,
{16}3/8b-5[8:1],,,3,
,,2,,
1b-4[8:1]/5,,,6,
,,7,,
{8}8b-4[8:1],,8^3[8:1]*^5[8:1],,
,,{16}7,4,6,5,
{8}8b,,8,2,
18,2,38,4,
{16}28,,,1,
8,,1,,
8,,1,,
2,,7,8,
{16}1b^4[8:1]/6,,,6,
,,7,,
8b^5[8:1]/4,,,3,
,,2,,
{8}1bw5[8:1],,1,,
46,46,{16}3,7,2,8,
{16}1,,1,8,
1,7,1,6,
1,,1,5,
2,6,3,7,
{16}3,,3,8,
3,7,3,6,
3,,3,6,
4,7,5,8,
{16}5,,5,8,
4,8,3,8,
2,,71,,
1-6[8:1]*-4[8:1],,82,,
{8}1bs5[8:1],,1bv8[8:1]*v2[8:1],,
1bw5[8:1],,,,
{16}3,5,4,5,
3,6,4,6,
3,7,4,7,
5,6,4,7,
{16}4,7,3,7,
4,6,3,6,
4,5,{24}4,3,2,
1,,,,,,
{16}2,5,4,5,
2,6,4,6,
2,7,4,7,
4,5,3,6,
{8}45,45,36,36,
27,27,{16}36,27,18,,
{8}1^6[2:3],,,,
,,,,{8},,,,
,,,,
{8}5^2[2:3],,,,
,,,,{8},,,,
,,,,
{8}7^4[2:1],,,,
,,,,
{8}3^8[2:1],,,,
,,,,
{16}7b,8,7,1,
7,2,7,2,
1b,2,8,2,
7,2,7,2,
{24}7,8,1,2,3,4,
25,1,8,7,6,5,
{16}48,,48,,
37,26,15,,
{16}78,,16,,
2,3,4,,
56,,47,,
3,2,1,,
{16}7,8,6,1,
5,2,4,3,
6,5,7,4,
8,3,1,2,
{16}38,,12,,
12,3,4,,
78,6,5,,
18,27,36,,
{12}4,5,2,
6,4,7,
2,5,1,
7,4,8,
{16}1b,,1,,
28,37,46,,
,,5,,
46,37,28,,
{16},,15,,
26,,37,,
{32}48,,,,
8,7,6,5,
{16}1,,2,,
3,,4,,
{8}8,7,6,5,
24,17,,56,
{8},34,,57,
82,16,37,,
{12}1,5,3,
7,4,6,
2,5,3,
4bz8[8:5],,,
{8},,,,
,,
{16}6-1[8:1],,,3,
,,2-5[8:1],,
,,8-4[8:1],,
7,,8,,
{16}1-5[8:1],,2,,
1,,8,,
7,8,,16,
,,25,,
{16}3-8[8:1],,,5,
,,4-7[8:1],,
,,8,,
8,,1,2,
{16}3,,8-4[8:1],,
8,,1,,
2,1,,38,
,,47,,
{16}3-8[8:1],,,6,
,,7-4[8:1],,
,,1-5[8:1],,
2,,1,,
{16}8-4[8:1],,7,,
8,,1,,
2,1,,83,
,,74,,
{24}1,2,3,4,5,6,
7,8,1,2,3,4,
5,6,7,8,1,2,
3,4,5,6,7,8,
{16}1,2,3,4,
{12}5,6,7,
{16}18,,18,,
18,27,36,,
{16}5/1-5[8:1],,,6,
1,,8,,
1-3[8:1],,8,,
17,,6,,
{16}7/1-3[8:1],,8,,
8/1-4[8:1],,7,,
6/1-5[8:1],6,,7,
,,8,,
{16}4/8-4[8:1],,,3,
8,,1,,
8-6[8:1],,1,,
82,,3,,
{16}2/8-6[8:1],,1,,
3/8-5[8:1],,2,,
1/8-4[8:1],1,,2,
,,3,,
{16}4,5,6,7,
8,1,2,3,
8,,,7,
,,6,,
{16}5,4,3,2,
1,8,7,6,
1,,,2,
,,3,,
{16}4,4,4,,
5,5,5,,
3,3,3,,
6,6,6,,
{16}2,2,2,,
7,7,7,,
1,1,1,,
8,8,8,,
{32}1,2,3,4,5,6,7,8,
1,2,3,4,5,6,7,8,
1,2,3,4,5,6,7,8,
1,2,3,4,5,6,7,8,
{32}1,2,3,4,,,,,
{8}8b,,7b,,
6b,,
{16}7,4,5,4,
6,3,5,3,
7,4,5,4,
6,3,5,3,
{16}72,,,,
34,,25,,
1^4[8:1],,1,,
5^8[8:1],,5,,
{16}2,,,,
3,4,2,5,
1^4[8:1],,1,,
8^5[8:1],,8,,
{16}1,,,2,
,,3,,
{8}48,26,37,15,
{16}2,5,2,5,
3,4,3,4,
3-8[8:1],,3,,
4,,5,,
{16}6,1,6,1,
7,8,7,8,
7-4[8:1],,7,,
8,,1,,
{16}1,2,3,4,
5,6,7,8,
16,5,4,3,
2,1,8,7,
{16}61,8,7,6,
51,2,3,4,
51,,26,,
37,,48,,
{16}48,,7,5,
6,4,7,5,
6,4,8,2,
1,3,8,2,
{16}1,,2,3,
48,,7,6,
52,,3,4,
56,,56,,
{16}8,7,6,5,
3,2,1,8,
6,,54,,
3,,,,
{16}1,2,3,4,
6,7,8,1,
4,,4,5,
4,3,2,1,
{16}7,8,7,8,
6,1,6,1,
5,2,5,2,
4,3,4,3,
{16}1,2,1,2,
8,3,8,3,
7,4,7,4,
6,5,6,5,
{16}8b,,2,1,
2^5[8:1],,2,,
1-5[8:1],,1,,
8-4[8:1],,8,,
{16}7^4[8:1],,7,,
8-5[8:1],,8,,
1-4[8:1],,1,,
2^7[8:1],,2,,
{16}5,,6,5,
6-1[8:1],,6,,
5,,5-1[8:1],,
4-8[8:1],,4,,
{16}3-8[8:1],,3,,
4-1[8:1],,4,,
5-8[8:1],,5,,
6^3[8:1],,6,,
{16}8,,2,1,
2-6[8:1],,2,,
1-5[8:1],,1,,
8^3[8:1],,8,,
{16}7^4[8:1],,7,,
8-4[8:1],,8,,
1-5[8:1],,1,,
2,,2,,
{16}2,3,4,5,
6,7,8,1,
25,4,3,2,
1,8,7,6,
{16}1,2,8,7,
2,3,7,6,
3,4,6,5,
2,3,7,6,
{8}51,,1bh[8:11]/8bh[2:5],,
,,,,{8},,,,
{16},,,{32}2,
3,4b,,,,
{8},,,,
,,,,{8},,,,
,,,,
{1},,,,,,,,
