&title=Ice Ginte-冰巨星
&artist=EndCat-终猫
&first=0
&lv_2=7
&des_2=Easy Grass
&inote_2=
(150){4},,,,,,,,{1}1,
,1,
1,
1,
,2,
{2},,3,
3,
{1}3,
{2}4,4,
{1}4,
{2}5,5,
{1}5,
{2}6,6,
{1}6,
{2}7,7,
{1}7,
{2}8,8,
{1}8,
{2}1,1,
{1}1,
{2}8/1,8/1,
{1}8/1,
1b/8b,
,1,
,2,
,3,
4,
{4}5,5,5,5,
6,6,{2}6,
{4}7,7,7,7,
8/1,8/1,{2}8/1,
{4}1/8,1/8,2,2,
3,3,4,4,
{1}5h[1:1],
4b,
,,1h[2:1],
2h[2:1],
3h[2:1],
4h[2:1],
5h[2:1],
6h[2:1],
7h[2:1],
8h[2:1]/1h[2:1],
1h[2:1],
2h[2:1],
3h[2:1],
4h[2:1],
5h[2:1],
6h[2:1],
7h[2:1],
8h[2:1]/1h[2:1],
C,
,E8,
E2,
E6,
E4,
C,
{4}1x,1x,{2}1x,
{1}1b-4[4:3],
8-5[4:3],
1>4[4:3],
8<5[4:3],
1-5[4:3],
8-4[4:3],
1pp4[2:3],
{4},,,,8b/1,
8,8,8,
7,7,7,7,
6,6,6,6,
5,5,5,5,
4b,4,4,4,
3,3,3,3,
2,2,2,2,
8/1,8/1,8/1,8/1,
{1}8h[1:1]/1h[1:1],
{4},7/2,7/2,7/2,
1b,1,1,1,
2,2,2,2,
3,3,3,3,
4,4,4,4,
8b,8,8,8,
7,7,7,7,
6,6,6,6,
5,5,{2}5,
{1}5h[1:1]/4h[1:1],
{16},,,,,,,,6x/3x,,,7x/2x,,,{8}8x/1x,
{4}1bx/8x,1x/8x,1/8x,1/8x,
2,2,2,2,
3,3,3,3,
4,4,4,4,
5,5,5,5,
6,6,6,6,
{1}7h[1:7],
,,,,,,,8b,
E
&lv_3=10.6
&des_3=Normal Grass
&inote_3=
(150){4},,,,,,,,{1}8,
{4},,,,8h[2:1],
,,8x,
{1}8h[2:1],
8h[1:1],
{4},,,7,
{1}7,
{4},,,,6,
6,{2}6,
{1}6h[2:1],
{4}5,5,{2}5,
{1}5h[2:1],
{4}4,4,{2}4,
{1}4h[2:1],
{4}3,3,{2}3,
{1}3h[2:1],
{4}2,2,2,2,
1,1,1,1,
8,8,8,8,
7,7,7,7,
8,1,8,1,
{1}8/1,
{4}1/8,8/1,{2}1/8,
1/8,8/1,
{1}8b/1b,
{2},,8,
{4}7,7,
,,,,{1}7,
,6,
5,
{4}4,4,{8}4,4,{4}4,
3/4,3/4,{8}3/4,3/4,{4}3/4,
2,2,{8}2,2,{4}2/1,
1/8,1/8,{8}1/8,8/1,{4}8/1,
{8}8,8,7,7,6,6,5,5,
4,4,3,3,2,2,1,1,
{1}1h[1:1],
8b,
,,8h[2:1]/1h[2:1],
7h[2:1]/2h[2:1],
6h[2:1]/3h[2:1],
{2}5h[4:1]/4h[4:1],{8}5/4,5/4,{4}5/4,
{1}4h[2:1]/5h[2:1],
3h[2:1]/6h[2:1],
2h[2:1]/7h[2:1],
{2}8h[4:1]/1h[4:1],{8}8/1,8/1,{4}8/1,
{2}8h[2:1],1h[2:1],
7h[2:1],2h[2:1],
6h[2:1],3h[2:1],
5h[2:1],4h[2:1],
5h[2:1],4h[2:1],
6h[2:1],3h[2:1],
7h[2:1],2,
{8}8/1,8/1,8/1,8/1,8/1,8/1,8/1,8/1,
{1}1/8h[1:6],
,E2,
E8,
E4,
E6,
C,
{4}8x,8x,{2}8x,
{1}8b-5[4:3],
1-4[4:3],
8<5[4:3],
1>4[4:3],
8-4[4:3],
1-5[4:3],
{4}8qq5[2:3],1,2,3,
,,,,1b/8,
1,1,{8}1,1,
{4}2/1,2,2,{8}2,2,
{4}3/2,3,3,{8}3,3,
{4}4/3,4,4,4,
5b,5,5,{8}5,5,
{4}6/5,6,6,{8}6,6,
{4}7/6,7,7,{8}8/1,8/1,
{4}1/8,1/8,1/8,1/8,
{1}1h[1:1]/8h[1:1],
{4},2/7,{8}2/7,7/2,{4}2/7,
{8}8b,1,8,1,{4}8,8,
7,7,{16}7x,,,7x,,,{8}7x,
6,3,6,3,{4}6,6,
5,5,{16}5x,,,5x,,,{8}5x,
1b,8,1,8,{4}1,1,
2,2,{16}2x,,,2x,,,{8}2x,
3,6,3,6,{4}3,3,
4,4,{8}4x,4x,5x,5x,
{1}4h[1:1]/5h[1:1],
{8},,,6xh[16:1]/3xh[16:1],{16}3x/6x,,,2x/7x,,,{8}1x/8x,
8bx/1h,8/1,{4}8h/1h,8h/1h,8h/1h,
7h,7h,{8}7h,7,{4}7,
{8}6,6,{4}6/5,6,6/5,
{8}4h/3h,4,3h/4h,4,{4}3h/4h,3h/4h,
{8}1h/2h,2,{4}2h/1h,1h/2h,1h/2h,
{8}8h/1h,8h/1h,{4}8h/1h,{16}8h/1h,,,8h[16:3]/1h[16:3],,,,,{1}1h[1:8],
,,,,,,,8b,
E
&lv_4=13.2
&des_4=穿心小草
&inote_4=
(150){4},,,,,,,,{1}1>1[2:7],
,,,8<8[2:7],
,,,{8}8-5[4:1],
1,2,3,,3-6[4:1],4,5,
,,,8,2,7,1,6,
1-4[4:1],8,7,6,,6-3[4:1],5,4,
,,,1,7,2,8,3,
5-8[4:1],4,3,2,,2-7[4:1],1,8,
,,,5,3,6,4,7,
,1,2,3,,,7,6,
,,,1,8,7,6,5,
4b/3b,3,3,3,8/1,8,8,8/6,
,,,7,8,1,2,3,
4/5,6,6,6,1/8,1,1,1/3,
,,,2,1,8,7,6,
5/4,3,3,3,8/1,8,8,8/6,
,,,7,8,1,2,3,
4/5,7,7,7,4/5,4,4,4/2,
,,,2,1,8,7,6,
{1}1b>1[4:11]*>1[4:11]*<1b[4.8##4.8],
,,,,,,,{4}1-4[8:1],
8-5[8:1],3-6[8:1],{8}1,{16}1,8,
{4}7-2[8:1],3-6[8:1],8-5[8:1],{8}1-4[8:1],1,
{4}7-3[8:1],8-4[8:1],1-5[8:1],2-6[8:1],
3-7[8:1],4-8[8:1],5-1[8:1],6-2[8:1],
{8}7-3[8:1],7,8-4[8:1],8,1-5[8:1],1,2-6[8:1],2,
3-7[8:1],3,4-8[8:1],4,5,5,6,6,
{16}8x,7,8,7,8,7,8,7,1,6,1,6,1,6,1,6,
{1}1b,
{2},,,,8x,
3,
{8}4,3,3,2,2,1,{4}1,
{2}2x,5,
{8}6x,,,,,8,1,2,
,8x,{4}2,3,2,
4x,1,3,1,
2x,7,5,7,
{8}6x,,,,,8,1,2,
,8x,,,{2}3,
4x,3,
2x,5,
{8}6x,,,,,8,1,2,
,8x,,,{2}3,
4x,5,
6x,5,
2x,{8}7,8,{4}1,
{1}8b,
,,,1x,
{4},,,,,,,,1-4[8:1],
6-3-6[4:1],,1b,
2-6[8:1],3-7[8:1],4-8[8:1],5-1[8:1],
6-2[8:1],7-3[8:1],8-4[8:1],1-5[8:1],
2-6[8:1],3-7[8:1],4-8[8:1],5-1[8:1],
6-2[8:1],7-3[8:1],8-4[8:1],1-5[8:1],
2-6[8:1],3-7[8:1],4-8[8:1],5-1[8:1],
6-2[8:1],7-3[8:1],8-4[8:1],1-5[8:1],
{8}2-6[8:1],2,3-7[8:1],3,4-8[8:1],4,5-1[8:1],5,
6-2[8:1],6,7-3[8:1],7,8-4[8:1],8,1-5[8:1],1,
{4}1b,1,1,{8}1,{16}1,1,
{4}1b,1,1,{8}1,1b,
{4}1b,1,{16}1,,,1,{8}1,1b,
{4}1b,1,1,1,
{8}1b/8b,8/1,7/2,7/2,6/3,6/3,4/5,4/5,
4b/3b,3/4,2/5,5/2,6/1,6/1,7/8,7/8,
1x,2x,3x,4x,{16}5x,6x,7x,8x,1x,2x,3x,4x,
{32}5bx,6x,7x,8x,1x,2x,3x,4x,5x,6x,7x,8x,1x,2x,3x,4x,5x,6x,7x,8x,1x,2x,3x,4x,{64}5x,6x,7x,8x,1x,2x,3x,4x,5x,6x,7x,8x,1x,2x,3x,4x,
{1}5bx-1[4:3]*-1[4:3],
{4}E8/B7/B8,B1/E2/B2,{8}E7/B6,B5/E5,{4}B3/B4/B7/B8/Cf,
{8}2-6[8:1],2,3-7[8:1],3,4-8[8:1],4,5-1[8:1],5,
6-2[8:1],6,7-3[8:1],7,8-4[8:1],8,1-5[8:1],1,
2-6[8:1],2,3-7[8:1],3,4-8[8:1],4,5-1[8:1],5,
6-2[8:1],6,7-3[8:1],7,8-4[8:1],8,1-5[8:1],1,
2-6[8:1],2,3-7[8:1],3,4-8[8:1],4,5-1[8:1],5,
6-2[8:1],6,7-3[8:1],7,8-4[8:1],8,1-5[8:1],1,
2,3,4x,5x,,7,8,1x,
,,,,,,,,{1}8-4[2:1],
{16},,,,,,1,8,7/2,,,6/3,,,{8}5/4,
1-5[8:1],1,8-4[8:1],8,7-3[8:1],7,6-2[8:1],6,
5-1[8:1],5,4-8[8:1],4,3-7[8:1],3,2-6[8:1],2,
1b-5b[8:1],1b,8b-4b[8:1],8b,7b-3b[8:1],7b,6b-2b[8:1],6b,
5b-1b[8:1],5b,4b-8b[8:1],4b,3b-7b[8:1],3b,2b-6b[8:1],2b,
1b,8b,7,6,,5,6b,7b,
{16},,,,,,7x,8x,1b,,,8b,,,{8}7x,
{1},,,,,,,,1b,
E
&lv_5=14.3
&des_5=VesperMare v.s. 累死草
&inote_5=
(150){4},{8},,7x,8x,1x,2x,
6x/3x,{16}4x,5x,3x,6x,2x,7x,1x,8x,1x,8x,1x,8x,1x,8x,
{1}1h[1:4],
{4},,,,,,,,,,,,,5,
3/2,5,
,,,2,
{1}1b,
3,
{8}8,1,2,3,,8/1,5,8/1,
,,,2,1b-5[8:1]/8b-4[8:1],7,{4}8b/1b,
{8}1,2,3,4,,4,3,2b,
,,,1-3<4[8:1],8b,1-7<6[8:1],6b,1,
5,4,3,2,,,2,1,
,,,8,1-5[8:1],2,1,8,
B8,1,2,1,,,2b,1b,
,,,1h[8:1],2h[8:1],3h[8:1],4h[8:1],5h[8:1],
6b,{16}8,7,8,7,{8}8,4/3,{16}2,1,3,1,{8}2h[8:1],
7,8,{4}8,{8}7/2,1,8,7,
6/4,{16}1,8,2,8,{8}4,7/5,{16}4,3,{8}2/8h[8:1],2,
8h[4:1]/1h[16:1],{16}2,3,{8}4,5/7,8h[16:1],1h[16:1],7h[16:1]/2h[16:1],6h[16:1]/3h[16:1],
4b-1[8:1],1-7[8:1],7/4,6,{16},,1,8,{8}7-3[8:1],3-5[8:1],
,,,3-1b[8:1],1b-6[8:1],5,4,5,
8,{16}1h,2h,{8}5/3h[8:1],5,2,1,8,7b,
,,,7,8/1,2,8-4[8:1]*-4[8:1]*-4[8:1]/1-5>5<5[4:31]*-5>5b[2:9],7,
{1}8b/1b,
{4},,,E8,
E2,,,E6,
{1}E4,
C/B7/B6/B2/B3,
,,B7/B6/C/B2/B3,
{4}3/4b,5/6,1/2,{8}7/8,{16}5,3,
{4}1b,6/8,3/5,{8}8-4[8:1]/1-5[8:1],6/3,
{4}8b/1b,7h[8:1]/8h[8:1],{16}4/2,,,3,{8}1b,6b,
{4}7/8,{8}3/4,{16}6,5,{8}7b,{16}3,4,{8}2b,8b/1,
1b/8b,8/1,7/2,7/2,6/3,{16}5,4,{8}6/3,7b/2b,
5/4,7b/2b,5/4,8/1,8h/6h,1h/3h,7h/5h,2h/4h,
{16}6bx-4b[16:1]/8b-4b[16:1],8/6xh,6x-2b[16:1]/8-2b[16:1],8/6xh,{8}6bx/8b,6bx/8bx,{16}3bx-1b[16:1]/5-1b[16:1],5/3xh,3x-7b[8:1]/5b-7b[8:1],3x/5h,{8}5b/3bx,5bx/3bx,
,,,,,,,,{4}1-5[8:1],
1h[4:1],,,,,8-4[8:1],
8b,
{32}1b,2,3,4,5,6,7,8,1,2,3,4,5,6,7,8,1b,2,3,4,5,6,7,8,1b,2,3,4,5,6,7,8,
1b,2,3,4,5,6,7,8,1,2,3,4,5b,6,7,8,1b,2,3,4,5,6,7,8,1b,2,3,4,5,6,7,8,
1b,2,3,4,5,6,7,8,1b,2,3,4,5,6,7,8,1b,2,3,4,5,6,7,8,1b,2,3,4,5,6,7,8,
1b,2,3,4,5b,6,7,8,1b,2,3,4,5b,6,7,8,{2}1bh[4:1],
{32}8b,7,6,5,4,3,2,1,8,7,6,5,4,3,2,1,8b,7,6,5,4,3,2,1,8b,7,6,5,4,3,2,1,
8b,7,6,5,4,3,2,1,8,7,6,5,4b,3,2,1,8b,7,6,5,4,3,2,1,8b,7,6,5,4,3,2,1,
8b,7,6,5,4,3,2,1,8b,7,6,5,4,3,2,1,8b,7,6,5,4,3,2,1,8b,7,6,5,4,3,2,1,
8b,7,6,5,4b,3,2,1,8b,7,6,5,4b,3,2,1,{2}8bh[4:1],
{32}1b/5b,2/6,3/7,4/8h[32:117],5,6,{16}7,{32}1,2,3,4,5,6,{16}7,{32}1b,2,3,4,5,6,{16}7,{32}1b,2,3,4,5,6,{16}7,
{32}1b,2,3,4,5,6,{16}7,{32}1,2,3,4,5b,6,{16}7,{32}1b,2,3,4,5,6,{16}7,{32}1b,2,3,4,5,6,{16}7,
{32}1b,2,3,4,5,6,{16}7,{32}1b,2,3,4,5,6,{16}7,{32}1b,2,3,4,5,6,{16}7,{32}1b,2,3,4,5,6,{16}7,
{32}1b,2,3,4,5b,6,{16}7,{32}1b,2,3,4,5b,6,{16}7,{2}1bh[4:1],
{32}8b/4b,7/3,6/2,5/1h[32:125],4,3,{16}2,{32}8,7,6,5,4,3,{16}2,{32}8b,7,6,5,4,3,{16}2,{32}8b,7,6,5,4,3,{16}2,
{32}8b,7,6,5,4,3,{16}2,{32}8,7,6,5,4b,3,{16}2,{32}8b,7,6,5,4,3,{16}2,{32}8b,7,6,5,4,3,{16}2,
{32}8b,7,6,5,4,3,{16}2,{32}8b,7,6,5,4,3,{16}2,{32}8b,7,6,5,4,3,{16}2,{32}8b,7,6,5,4,3,{16}2,
{32}8b,7,6,5,4b,3,{16}2,{32}8b,7,6,5,4b,3,{16}2,{2}8bh[4:1],
{4},,,,,,1,
1,
{1}1b,
{2}2,{4}3b,3b,
,,,,{1}4b,
{4},,,,1h[8:5],
8h[4:1],{8},5b,{4}4b,
{8}2h[16:3],3h[16:3],6h[16:3],8bh[8:1],,1h[16:1],1h[16:1],1bh[16:1],
{16},,,,,,7b/1b,7b/1b,7b/1b-5[16:3],,,5b-7[16:3],,,{8}7b-2[8:1],
,,8x,8,1h[16:1]/7h[16:1],2h[16:1]/6h[16:1],{4}4h[2:1],
{16},,,,,,1/3,4/2-5[8:1],3b/5b,,,2b/6h,,,{8}4x/8bh,
5x/1V35[4:1],4,1V75[4:1],6,1V35[4:1],4,1,6h[8:3],
{16},,,,,,6/4,7/3,{8}8/2,{16}1b-5[8:1],1b,,,{8}1b,
7-3[64:7],8,1/7b,2-6[8:1],,2b,7x,8xh[8:5],
,,,,1x,2x,6x,3x,
{4}5h[4:3]/1b-3[8:1],1-4[8:1],1,{8}1,{16}1b,1b,
{4}5h[4:3]/1b-6[8:1],1-7[8:1],{16}1,,,1b,{8}1b-5[8:1],1b,
{4}5h[4:3]/1b>3[8:1],1,{8}1,{16}1b,1b,{8}1b-6[8:1],1b,
{4}1bv7[8:1],1-5[8:1],{2}1w5[8:1],
{8}7/1b,8/2,3/1b,2/4,5b/3,4/6,7/5b,6/8,
8b/7h,8/1,2/1b,2/3,3/4b,5/4,6/5b,6/7,
{16}5xh[32:1],6,5h[32:1],6,4xh[32:1],7,4h[32:1],7,3xh[32:1],3xh[32:1],2xh[32:1],2xh[32:1],1h[32:1],1h[32:1],8h[32:1],8h[32:1],
{32}2xh[64:1],1xh[64:1],2xh[64:1],1xh[64:1],2xh[64:1],1xh[64:1],2xh[64:1],1xh[64:1],3bx,8bx,3bx,8b,3bx,8bx,3b,8bx,{64}3xh,4xh,5xh,6xh,7xh,8xh,1xh,2xh,3h,4h,5h,6h,7h,8h,1h,2h,3bx,4bx,5bx,6bx,7bx,8bx,1bx,2bx,3b,4b,5b,6b,7b,8b,1b,2b,
{1}3b,
{4}1-5[8:3],1x-5-1b[4:1],{2}1w5[8:1],
{8}3x/4x,1,5/6,8h[8:1],{16},,1,1,{8}6/8b,5b/3h[8:3],
{16},,,,,,8/1,8/1,7b/2b,,,6b/3b,,,{8}5b/4b-8[8:1],
1/2,4,5,6bh[4:1],,4,3b,2bh[8:3],
{16},,,,,,1,8,7bh[16:3],,,3bh[16:3],,,{8}5b,
1/7,5/3,7/1,6b/2b,,1-4[8:1]/7-4[8:1],5/6,7b/1b,
{16},,,,,,8,1,{8}2bh[16:3],{16}3b,3bh[16:3],,,{8}4bh[8:1],
5,6,7,8b,,2>8[8:3]/1<3[8:3],8/3,1b/2b,
,,,,1x-4[8:1],1x-6[8:1],1bx>1[1:1],1bx,
{1}1bxh[2:1],
{16},,,,,,8b/1b,7b/2b,6bh[8:1]/3bh[8:1],,,5bh[8:1]/2bh[8:1],,,{8}4bh[16:1]/1bh[16:1],
{4}1b/3b-6b[8:1],3b/2b-7b[8:1],2b/8b-5b[8:1],8b/1b-4b[8:1],
1b/6b-3b[8:1],{8}6b/2b-5b[8:1],8bh[16:1],{16}7b,,,6b,,,{8}8b/1b,
{4}8b/6b-3b[8:1],6b/7b-2b[8:1],7b/1b-4b[8:1],1b/8b-5b[8:1],
8b/3b-6b[8:1],{8}3b/7b-4b[8:1],1bh[16:1],{16}2b,,,3b,,,{8}1b/8b,
{4}4b/2b-7b[8:1],2b/3b-6b[8:1],3b/5b-8b[8:1],5b/4b-1b[8:1],
4b/7b-2b[8:1],{8}7b/3b-8b[8:1],5bh[16:1],{16}6b,,,7b,,,{8}4bh[8:49]/5bh[8:65],
{1},,,,,,,,4b,
E
&lv_6=13.8
&des_6=见习小草
&inote_6=
(150){4},,,,,,,,{1}1-5[2:3],
,3-7[16:13],
{2}5q1[2:1],1-3[8:1]*-6[8:1],
{1}C,
{4},,,E8,
{1}1-5[2:3],
{8},,,,,,,,8-5[8:1],
4,8/3,2-5[8:1],,2,1,8,
,,,1-5[8:1],2,3/1-7[8:1],2,1-3[8:1],
,1,7,5-8[8:1],,5,3,2,
,,,2,1-5[8:1],8,1,7,
,7,1,3-5[8:1],,3,1,7,
,,,8,1,2,3,4h[8:3],
,5,6,7h[2:1],,,1,2,
{2}3-6[8:1],{8}E8,B8,B1,E2,
1-4[8:1],5,1/6,7-4[8:1],,7,8,1,
,,,8-4[8:1],7,6/8-2[8:1],7,8-6[8:1],
,8,2,4-1[8:1],,4,6,7,
,,,7,8-4[8:1],1,8,2,
,2,8,6-4[8:1],,6,8,2,
,,,1,8,7,6,5h[8:3],
,4,3,2h[2:1],,,8,7-4[8:1],
,,,,,,{4}C,
{32}8b/4b>4-2-8-6-4-8[8:61],7/3,6/2,1/5,{1},{4},,,{16},,{64}A1,
B1,{4},,,{16},,,{32},{64}E2,
B2,{4},,,{16},,,{32},{64}B6,
B5,{4},,,{16},,,{32},{64}B3,
E4,{4},,,{16},,,{32},{1}4-8[16:27],
{4},,,,6-2[8:1],
6/1-4[8:1],1/5-8[8:1],{8}5/3-6[8:1],{16}1,2,
{4}3/7-2[8:1],7/1-5[8:1],{2}1-4[8:1]*-6[8:1],
{4}7/3-6[8:1],3/8-5[8:1],{8}8/2-6[8:1],2,2-5[8:1],8,
{4}2/7-4[8:1],7/1-5[8:1],1/7-3[8:1],7/1-3-5[4:1],
{8}1,{16}8,7,{8}6,6,7/8,7/8,1,2,
3/4,3/4,8/1,8/1,7/2,7/2,6/3,6/3,
{16}4,5,4,5,3,6,3,6,2,7,2,7,1x,8x,1x,8x,
{1}1b-5[2:1],
8-4[4:1],
Ch[4:3],
{8}8h[32:15],{32}1x,2x,3x,4xh[32:13],,,,,,,,,7x,6x,{16}5xh[16:7],,,{4}4xh[8:1],
{32}4xh[2:1],6x,7x,8x,{8}1xh[8:3],{32},,,,,,,,,8x/5x,{16}6xh[16:3]/7xh[16:5],{32},,,,,,,,,6xh,5xh,4xh,
{2}3xh[8:3]/1xh[4:1],{4}6xh[8:3]/2xh[8:1],2xh[8:1],
5xh[8:1]/3xh[8:3],5xh[8:1],{8}4,{16}7,8,{8}5h[8:1],3,
1h[32:15],{32}8x,7x,6x,5xh[32:13],,,,,,,,,2x,3x,{16}4xh[16:7],,,{4}5xh[8:1],
{32}5xh[2:1],3x,2x,1x,{8}8xh[8:3],{32},,,,,,,,,1x/4x,{16}3xh[16:3]/2xh[16:5],{32},,,,,,,,,3xh,4xh,5xh,
{2}6xh[8:3]/8xh[4:1],{4}3xh[8:3]/7xh[8:1],7xh[8:1],
4xh[8:1]/6xh[8:3],4xh[8:1],{8}2h[8:1],8h[8:1],6h[8:1],4h[8:9],
{4}6h[8:1],3h[8:1],2h[8:1],{8}1,8,
8h[2:1],5,6,7,7h[2:1],8,1,2,
3h[8:1],4h[8:1],5h[8:1],6h[8:1],7h[8:1],8h[8:1],1h[8:1],2h[8:1],
3-7[8:1],4,5-1[8:1],6,7-3[8:1],8,1>4[2:1],2,
{2}1h[8:3],7h[2:1],
5h[2:1],3h[2:1],
{8}2h[4:1],1h[4:1],,,1h[4:1],8h[4:1],,,8h[4:1],
7h[8:3],,,8h[8:1],2h[8:1],4xh[8:1],3bh[8:1],
{1}Ch[4:27],
,B2h[4:19],
B3h[4:15],
B7h[4:11],
B6h[4:7],
{4},,,,
1-5[8:1],1-3-1[4:1],{2}1w5[8:1],
{8}8/2-5[8:1],3,2/8-4[8:1],6,8/7-1[8:1],6,7/3-7[8:1],5h[16:9],
{16},,,,,,3,3,7h[8:1]/1h[8:1],,,6h[8:1]/2h[8:1],,,{8}5/3,
1/7-4[8:1],6,7/1-5[8:1],3,1/2-8[8:1],3,2/6-2[8:1],4h[16:9],
{16},,,,,,6,6,2h[8:1]/8h[8:1],,,3h[8:1]/7h[8:1],,,{8}4/6,
8/2-5[8:1],2,2/7-2[8:1],7,,3-6[8:1],3/8x,8h[2:1],
{16},,,,,,4b,8b,1h[8:1]/5h[8:1],,,2h[8:1]/6h[8:1],,,{8}5/1,
1-4[8:1],1,3x-6-8-4[8:3],3x,,,{4}2xh[4:3],
{8},,,,7x,8x,1b/Ch[8:1],2x,
{4}1-4[8:1],1-5[8:1]*-7[8:1],1-6[8:1]*-4[8:1],1<7[8:1]*-5[8:1],
1-6[8:1]*-3[8:1],1-4[8:1]*<5[8:1],1v3[8:1],{8}1/8-5[8:1],6,
{4}8-6[8:1]*-3[8:1],8-4[8:1]*V25[8:3],8-5[8:1],8-3[8:1]*<6[8:1],
8-5[8:1]*-4[8:1],8<3[8:1],8>3[8:1],8-4[8:1],
{8}8/4x,3,2-6[8:1],2,8/2,8,8-4[8:1],8,
8/2-6[8:1],2,2/5-8[8:1],5,5/1-4[8:1],1,1/6x,7,
{16}1,8,1,8,2,7,2,7,3,6,3,6,4,5,4,5h[16:5],
,,,,,,6/8,6-3[8:1]/8-3[8:1],{8}6/8,{16}6>8[8:7]/8>6[8:7],6/8,,,{8}6b/8b,
,,,,,,,,{4}1-4[4:1],
1-7-1[4:1],{2}1w5[8:1],
{4}8/2-5[8:1],2/4-7[8:1],4/6-1[8:1],6/8w4[4:1],
{16},,,,,,6/2,6>4[8:1]/2>4[8:1],6/2,,,6/2,,,{8}7/1,
{4}1/7-4[8:1],7/5-2[8:1],5/3-8[8:1],3/1w5[4:1],
{16},,,,,,3/7,3<5[8:1]/7<5[8:1],3/7,,,3/7,,,{8}2/8,
{4}5/3-8[8:1],3/1-6[8:1],1/7-4[8:1],7/5w1[4:1],
{16},,,,,,7/3,7>1[8:1]/3>1[8:1],7/3,,,7/3,,,{8}6/4,
3/7<3[8:1],7/3>7[8:1],,,,2-6[8:1],2,Cf,
,,,,7,8,1b,2,
B7h[4:5],B2h[8:9],B6h[1:1],B3h[8:7],,,,Cfh[8:3],
{16},,,,,,1,1,2b/8,,,3/7b,,,{8}6/4b,
8b/2-5[8:1],1,2/4-7[8:1],3,4/6-1[8:1],5,6/8w4[4:1],7,
{16},,,,,,6/2,6>4[8:1]/2>4[8:1],6/2,,,6/2,,,{8}7/1,
1b/7-4[8:1],8,7/5-2[8:1],6,5/3-8[8:1],4,3/1-6-4[4:1],2,
,2,3,{16}3/7,3<5[8:1]/7<5[8:1],7b/3b,,,3/7,,,{8}2/8,
5/3-8[8:1],4,3/1-6[8:1],2,1/7-4[8:1],8,7/5w1[4:1],6,
{16},,,,,,7/3,7>1[8:1]/3>1[8:1],7/3,,,7/3,,,{8}4b/6bh[1:7],
C,E8,E1,E2,,E4,E5,E6,
,,,A7,B7,C,B3,A3,
,E8,E7,E6,,E2,E3,E4,
,,,A1,B1,C,B5,A5,
,B8,E7,B5,,B1,E3,B4,
,,,D7,D1,D3,D5,Cf,
,E7,C,E3,,,E1,E5f,
,,,E7/B7/B6,E1/B8/B1,B2/E3/B3,B5/B4/E5,C,
{1}8b-4[4:7],
E
