&title=悔_
&artist=Essbee
&first=0.05
&lv_5=14
&des_5=Lunafoto_
&inote_5=
(193){4},{1},,{4},,,{32}8,
{64}1,E8,2,E7,3,E6,4>5[1:1],E5,{1},{4},,{16},{32},{4}6,
6h[4:3],{8},,,,4,4V28[2:1],
,,,,,,{4}5,
{8}5h[4:3],,,,,3,4,6h[2:1],
,,,5,{4}7/4,{8}3,5/3h[8:7],
,,,,{2}E8,
{8}7h[4:1]/5h[4:1],,,6h[4:1]/4h[4:1],,,{4}5/3h[4:1],
{8}8b<5v4[4:3],,,3,{2}1,
{8}2<7v5[4:3],,,6,{2}4,
{8}8>4qq2[4:3],,,7,{2}7,
{8}6h[8:3],,,5,{4}7/4,3,
{8}5/2-5[8:3],,,7,{2}8-5[8:3],
{8}2,,,6,{2}7/1v6[8:3],
{8}8,,,5,5/4,6,2,7,
{2}8h[4:1]/1h[4:1],8-4[8:1]`1-5[8:1],
{8}7/3,{16}6,4,{8}5,{16}3,4,{8}2-4[8:1],4-6[8:1],,8,
{16},,7,5,{8}8,2,4v5[8:1]/3v2[8:1],5,{4}4/3,
{8}7/1,{16}6,4,{8}5,{16}3,4,{8}2>4[8:1],4-6[8:1],,8,
{16},,7,7,{8}5,{16}2,2,{8}4,5/3,{4}6h[8:1]/2h[8:1],
7-5[16:1],{8}7/4,2-4[16:1],,1/2qq5[4:1],,7,
{4}7-5[16:1],{8}7/3,2-4[16:1],8/1,7pp4[4:1],{4}6,
3-1[16:1],{8}3,7-5[16:1],,1/7-1[16:1],,3,
3,{16}5,4,{8}6,{16}3,4,{8}2/5-3[16:1],,,1b-4[8:1],
,7,{4}7-5-8[16:3],{8}3,3-6-4[16:3],,1,
{16},,8,8,{8}2,{16}7,7,{8}1s5[16:3],8/2,,6h[4:1],
,4,{4}4/7-5[16:1],{8}2,2-4[16:1],,8/2,
{16},,6,5,{8}8,4h[8:1],{16}6,5,6,5,{8}8,4h[8:1],
{4}8-6-4[16:3],{8}8/2,1-3[16:1],,1/6,5,{16}4,3,
{4}4<7[8:1],{8}1,1-4[8:1],,8,{4}8,
{8}7/5,2,6/4,{16}4,5,{8}3,6/4,1,7/8,
6,{16}3,4/2,,6,{8}7/5,{16}E1,E2,E3,E4,E5,E6,E7,E8,
{4}E1,{8}3/4,{16}6,5,{8}7,{16}3,4,{8}2,{16}7,7,
4,6,{8}5,7,3,{16}6,6,{8}5,7/4,6/3,
4,5,3/6,4,7,5,{16}4,4,{8}6,
5/3,4,2/6,3,4/7,6,5/4,6/3,
{16}2,2,{8}5,4,7,6/4,5,4/2,3,
{16}6,6,{8}4,5/3,2,{16}7,5,{8}6,3/4,5,
6/3,4,7/4,6,3/5,5,{16}3,4,{8}2,
{16}6,5,6,5,{8}7h[8:1],5,{16}3,4,3,4,{8}2h[8:1],5,
1-4[16:1],8,7/1,6,5-8[16:1],4,5/3,2,
{16}8,7,6,5,{8}3,4/2,{16}6,6,{8}4,5/3,2,
1>4[32:3],8,7/1,6,5<8[32:3],4,5/3,2,
1,7,6/5,4,5/3,2,{16}7,6,{8}5,
{16}2pp3[8:1],2,{8}8,7,6,5pp6[8:1],4,5/3,2,
{16}1,1,{8}8,7,6,{16}5,4,{8}5,{16}3,4,{8}3,
7/5,6,2/4,3,8/5,6,{16}1,4,{8}3,
{16}6,5,6,5,7,4,7,4,8,3,8,3,1,2,{32}1,B1,C,B5,
{1}A5,
{4},,,6,
{8}5h[1:2]/7xh[4:1],,,7xh[4:1],,,{4}6,
{8}3xh[4:1],,,3xh[4:1],,,{4}4,
{8}7xh[4:1],,,7xh[4:1],,,{4}7/5,
4,{8}5,3,{4}6h[4:1],4,
{8}3h[1:2]/5xh[4:1],,,5xh[4:1],,,{4}4,
{8}1xh[4:1],,,1xh[4:1],,,{4}2,
5,{8}6,6,{4}7/4,{8}5,4,
3h[4:1],,,7h[4:1],,,{4}1h[4:1],
8bp4[4:1],4>1[4:1],1-6[4:1],4,
3<6[4:1],6-1[4:1],1V38[4:1],{8}5,5-7-4[4:1],
,4-8>1[4:1],,,{4}2,3,
5h[4:1],{8}4,3,{4}2/6,8,
5/6-8[16:1],4,{8}3-1[16:1],4,{4}5/3,
4/6-1[8:1],{8}5,4,{4}3-1[16:1],5/3,
{8}6,6,7/5,4,4,{16}5,3,{8}5,6h[4:1]/2h[4:1],
{16},,,,5,3,6,4,7b,5,8,2b,4,3,5b-1[8:1],4,
{8}6h[4:1],,,8,{4}7h[8:1]/2h[8:1],{8}6/4,3/7-4[32:3],
,1,1-5[8:1],8,7-5[16:1],6,3qq4[8:3],2qq3[4:1],
,,,,5,5,3,7/4,
{16},6,{8}5,6/4,3,7b/1b,6b/2b,5b/3b,4h[8:3],
{4}8z4[8:1],{8}8,2-4[16:1],,8/2,7,5/6v1[8:1],
,6/4,2-4[16:1],2-8[16:1],2-5[16:1],2-7[16:1],2,2,
{4}4z8[8:1],4/6<1[8:1],{8}2,3,4,7/5>2[8:1],
,8,7,6,5/3,4,{4}8-4[32:3],
8/1,{8}3>8[8:1],3,7-4[32:3],6,{4}2-4[16:1],
{8}8<5[8:1],8,1-5[32:3],2,4-8[32:3],4,{4}2>5[8:1],
1/2,{8}7-5[16:1],7,4-8[32:3],4,6,5>2[8:1],
{16},,6,7,{8}8,{16}1,1,2,3,4,5,{4}7-4[32:3],
7/5,{8}3<6[8:1],8-4[32:3],,8,{4}2,
{8}4-6[16:1],4,{4}7-3[32:3],{8}2-4[16:1],2,{4}8,
5<8[8:1],{8}5/3,4>1[8:1],,7/4,{4}5-1[32:3],
{8}5/2,{16}3,3,{8}8,7,6/4,5-7-4[4:1]/3-1-4[4:1],,5b/3b,
,,,,7b/3b,6b-8[16:1]/4b-2[16:1],,6b/4b,
,1,1,{16}7,5,{8}6,{16}3,5,{4}4-8[32:3],
7/4,6-4[16:1],{8}6/1>4[8:1],1,7,7-1[16:1],
,5,{4}5,{8}6/3,{16}5,4,{8}3/6,2-4[16:1],
,1,{4}1-5[32:3],{8}7/1,7-5[16:1],{4}8,
{8}4-2[16:1],4,{4}5-1[32:3],{8}7/5,6-8[16:1],,6/3qq4b[4:1],
,5,6,7,8/2,{16}3,5,{8}3,{16}7,4,
{32}8,7,6,5,4,3,2,1,{8}8,4,{16}6,6,5,5,7,7,4,4,
8,7,6,5,1,2,3,4,7,6,5,4,2,3,4,5,
7,6,5,4,8,1,2,3,{4}4/6,{16}5,4,3,2,
{8}1-3[16:1],{16}6,6,{8}1-7[16:1],{16}4,4,{8}1,3,2-8[16:1],1,
6/2,5,4/3,2,{16}8,7,6,5,2,3,4,5,
{8}8b-6[16:1],8,1,2,3,4-2[16:1],4,{16}5,6,
{8}7-4[32:3],7,1<6[8:1],1,{4}5-1[32:3],{8}3,3,
2,{16}6,4,{8}5,{16}3,4,{8}2,{16}6,5,{8}7,{16}3,4,
2,5,1,6,8,7,5,6,{12}4b,4b,4b,7b,7b,7b,
{8}1b-5[32:3],8/2,{4}7/1,{8}6,{16}4,5,3,4,2,3,
{8}2-4[16:1],5,6-8[16:1],7,{4}4qq5[16:3],7/4,
{8}8-6[16:1],{16}4,4,{8}8-2[16:1],{16}5,5,{8}8,{16}3,3,7,6,5,4,
1,5,3,4,8,6,3,5,1,7,5,6,{4}2-6[32:3],
8/2,{8}4/5,4/5,4/3,4/3,3/2,3/2,
7/1,6/8,5/4,{16}4,5,{8}3,{16}7,1,6,4,5,3,
{32}7,6,5,4,3,2,1,8,7,6,5,4,3,2,1,8,7/3,4,5,6,7,8,1,2,3,4,5,6,7,8,1,2,
3/8,7,6,5,8,7,6,5,1,2,3,4,1,2,3,4,5,6,7,8,1,2,3,4,5,6,7,8,1,2,3,4,
{1}5/8-5-3-7[4:9],
,1-5-3-8[4:7],
,6-3-7-2[4:7],
,1-4-8-5[4:7],
{8},,,,,,,6h[8:3],
{16},,,,E1,E2,E3,E4,{8}5h[4:3],,,B4/E5,
,,{4}E7/B6,B1/E1,{16}7h[16:1],B6,B5,B4,
{2}8h[2:1],{8}E6/E5,E4,,5h[8:7],
,,,,,,3,3-1-7[2:1],
,,,,{2}5,
6v4v3[2:1],{8}1,1,,2v3<4[2:1],
,,,6,,7pp4[8:9],,8<4b[8:7],
E
