&title=Snow Desert
&artist=WyvernP
&first=-0.32
&des=La pienture
&des_5=La pienture
&lv_5=14
&inote_5=(187.5){4},,,,,,,E5/3>6<3[8:43],
{32},,,,E5,B5,,,,,,,,,,,E5,B5,,,,,,,,,,,E5,B5,,,,,,,,,,,E5,
B5,,,,,,,,,,,E5,B5,,,,,,,,,,,E5,
B5,,,,,,,,,,,E5,B5,,,,,,,,,,,{4}E5/B4,
{32},,,,E5,B4,,,,,,,,,,,E5,B4,,,,,,,,,,,B4,E5,,,,,,,,,,,E5,
B4,,,,,,,,,,,E5,B4,,,,,,,,,,,E5,
B4,,,,,,,,,,,E5,B4,,,,,,,,,,,3h[8:3]/E5,B4,,,,,,,,,,,E5,
B4,,,,,,,,,,,2h[8:3]/E5,B4,,,,,,,,,,,E5,B4,,,,,,,,,,,1h[8:3]/E5,
B4,,,,,,,,,,,E5,B4,,,,,,,,,,,{8}5h[8:3]/E5/B5,
{32},,,,,,,,E5,B5,,,,,,,,,,,6h[8:3]/E5,B5,,,,,,,,,,,E5,
B5,,,,,,,,,,,7h[8:3]/E5,B5,,,,,,,,,,,E5,B5,,,,,,,,,,,8h[8:3]/E5,
B5,,,,,,,,,,,E5,B5,,,,,,,,,,,8/E5,
B5,,,,,,,,,,,{8}8/1,,,{4}1-5[8:1],
{8}1,8,,6,{4}5-1[8:1],{8}5,4,
2,8/3,{4}2/7-3[8:1],{8}7,2,,1,
{4}3-7[8:1],{8}3,5,6,7/1,{4}2/8h[8:3],
{8},2h[8:3],4,5,{4}6h[8:3],{16}3,4,{8}5,
{16}6,5,6,4,{4}5-1[8:1],{8}5,4,,5,
{4}4>1[8:1],{16}4,7,{8}7,E2,C,{4}8-4[8:1],
{8}8,1,,3,{4}4-8[8:1],{8}4,5,
7,1/6,{4}7/2-6[8:1],{8}2,7,,8,
{4}6-2[8:1],{8}6,4,3,2/8,{4}7/1h[8:3],
{8},7h[8:3],5,4,{4}3h[8:3],{16}6,5,{8}4,
{16}3,4,3,5,{4}4-8[8:1],{8}4,5,,4,
{4}5<8[8:1],{16}5,2,{8}2,E2,C,{4}8-5[2:5],
{8},E5,,,E4,,,E2,
{16},,D3,D4,{4}D5,{8},,4,3,
{4}2,{8}1,{16}E2,E3,{4}E4,{16}4-1[8:13],5,,,{8}5,
5h[4:1],,,{4}6,{8}7,7,
,8,{4}8,{8},8h[8:3],{16},,,,E2,
E3,E4,E5,E6,E7,{8}E8,,1,{4}8/2-5<3[2:5],
{8},E8,,,E7,,,E6,
{16},,A5,A6,{4}A7,{8},,7,6,
{4}5,{8}4,4,,5,3h[8:1],6h[8:1],
5h[8:1],8h[8:1],3h[8:1],4h[8:1],{4}1,{8}1,1>5[8:3],
,7,{4}7,{8},7h[16:1]/6h[16:1],7h[16:1]/6h[16:1],6h[16:1]/5h[16:1],
4h[16:1]/5h[16:1],4h[16:1]/3h[16:1],5h[16:1]/4h[16:1],5/6,7/4,3/8,{4}2/1<5V71[2:5],
{8},E5,,,E4,,,E2,
{16},,D3,D4,{4}D5,{8},,4,3,
{4}2,{8}1,{16}E2,E3,{4}E4,{16}4V28>4[8:13],8,,,{8}7,
7,,6,6h[4:1],,,5,
,4,{4}4-8[8:1],{16},,,,,,,,4/8,
3/7,2/6,1/5,4/8,7/3,{8}2-5[8:1]/6-1[8:1],,6-2<3[8:21],,,,E4,
,,E3,,,E2,
{16},,A1,A2,{4}A3,{8},,3,2,
{4}1,{8}8,8-4[8:1],,8,5,2,
7,1,4,7,{4}1,{8}1,1h[4:1],
,8,8,5,6,1,4,3,
7,5,6,2,4,3,{4}Ch[8:45]/5<4>5[4:21],
{1},,,,,{4},,,{8}4,
2,
2,5,2,2,6,2,2,7,
2,2,8,2,2,7,2,2,
6,3,3,5,4,4,4/5,5/6,
6/7,7/8,1/8,2,{16}3,3,4,4,{24}5,6,7,8,1,2,
{32}3,4,5,6,7,8,1,2,{4}3b-7[0.48##0.48],{8},,,,,,,4-8[0.48##0.16],
,,{4}4<7[0.48##0.16]/1>4[0.48##0.16],
{8},4/1-5[0.48##0.16],,,{4}1,{8}8,7/4,
3,2/6,1>4[0.48##0.16],8,2,1/6<1[0.48##0.16],,,6/3,
2,2,1/2<4[0.48##0.32],,,{4}2/6q4[0.48##0.16],
{8},6/2V48[0.48##0.32],,,{4}2,{16}7,6,{8}5/1,
2,2,3/8,7,7,6/2,3,3,
4/5,6,7,5>2[0.48##0.16]/8<5[0.48##0.16],,,{4}8/5-1[0.48##0.16],
{8},5/1<6[0.48##0.16]*>4[0.48##0.16],,,{4}1,{8}5,6/1,
2,3/7,4>1[0.48##0.16],5,3,4/7<4[0.48##0.16],,,7/2,
3,3,4/3<1[0.48##0.32],,,{4}3/7V51[0.48##0.32],
{8},7/2,{16},,2,3,{8}4/8,7,7,5/1,
2,2,3b/8,{16}7,4,5,3,{8}8b,{16}1,4,3,5,
{8}2b/C,,,8b<5[0.48##0.16]/1b>4[0.48##0.16],,,{4}8/1b-5b[0.48##0.16],
{8},1bv3[0.48##0.16],8,8,1bv7[0.48##0.16],2,2,1b,
3,3,4h[8:1],{16}6,5,7,4,{8}6b<1[0.48##0.16],5,7,
{4}6/2>5[0.48##0.16],{8}8,2b/8-4[0.48##0.16],,,8b/1-5[0.48##0.16],2,
2,1/7,8,{16}3,2,{4}1b/7h[4:1],{16}2,3,{8}8/4-8[0.48##0.16],
7,7,4b/6-1[0.48##0.16],5,5,6b/4,3,3,
{16}8b,4,6,5,7,7,1b,5,3,4,2,2,{4}8b-4b[0.48##0.16],
{8},8bv6[0.48##0.16],1,1,8bv2[0.48##0.16],7,7,8b,
6,6,1,5,2,8/3b>8[0.48##0.16],4,2,
3/7<4[0.48##0.16],6,2,7b/1-5[0.48##0.16],,,1b/8-4[0.48##0.16],7,
7,8/2,1,{16}6/1,7/2,{8}8/3b,4,4,7/3b,
6/2,5/1,{64}8b>4[0.48##0.16],4<8[0.48##0.16],{4},{16},{32},{8}8/4b,,,{4}1/7h[4:1],
{16}5,4,{8}8<1>8[0.48##3.84],,,{4}8b/Cf,
,,,,,,,,,,,1-4[0.48##0.16],
{8},1,,5,5-8[0.48##0.16],,,5,
4,3,{4}2-6[0.48##0.16],{16}8,7,{8}2/6,,5,
5<1[0.48##0.16],,,5/2h[8:3],,1,{4}1>8q1[0.48##2.4],
,,,,,,,,,,,8-5[0.48##0.16],
{8},8,,4,4-1[0.48##0.16],,,4,
5,6,{4}7-3[0.48##0.16],{16}1,2,{8}7/3,,4,
4>8[0.48##0.16],,,4/7h[8:3],,8,{4}8<1p8<1[0.48##3.36],
,,,,,,,,,,,E7/B6,
{8},B2,,B4,{2}E5,
{8}B6,B5,{4}B4,{16}E3,E2,{8}E1,,B6,
B5,,,E3/B3/1<2>1[0.48##3.68],,B7,{4}1,
,,,,,,,,,,,7,
{8},B2/E3,,6,6,,,B2/E3,
5,5,{4}4,{16}3,4,{8}3,,2-5V38[8:5],
{1}7V16-4[2:1],
E
